<?xml version="1.0" standalone="no"?>
<!DOCTYPE svg PUBLIC "-//W3C//DTD SVG 1.1//EN" "http://www.w3.org/Graphics/SVG/1.1/DTD/svg11.dtd" >
<svg>
<metadata>
Created by FontForge 20120731 at Sat May 28 05:05:03 2016
 By ,,,
Font data copyright Google 2014
</metadata>
<defs>
<font id="Roboto-Thin" horiz-adv-x="1121" >
  <font-face 
    font-family="Roboto"
    font-weight="250"
    font-stretch="normal"
    units-per-em="2048"
    panose-1="0 0 0 0 0 0 0 0 0 0"
    ascent="1536"
    descent="-512"
    x-height="1082"
    cap-height="1456"
    bbox="-969 -555 2308 2163"
    underline-thickness="100"
    underline-position="-100"
    unicode-range="U+0009-FFFD"
  />
<missing-glyph horiz-adv-x="490" 
 />
    <glyph glyph-name="fi" unicode="fi" horiz-adv-x="1067" 
d="M254 0v1027h-188v55h188v134q0 82 22.5 146t64 107t101.5 65.5t135 22.5q63 0 131 -12.5t137 -44.5l-8 -52q-30 13 -58 23.5t-58 17.5t-64.5 10.5t-78.5 3.5q-62 0 -112 -19.5t-85 -56t-54 -90t-19 -121.5v-134h286v-55h-286v-1027h-54zM884 0h-54v1082h54v-1082z" />
    <glyph glyph-name=".notdef" horiz-adv-x="490" 
 />
    <glyph glyph-name="uni0002" horiz-adv-x="0" 
 />
    <glyph glyph-name="uni0002" horiz-adv-x="0" 
 />
    <glyph glyph-name="nonmarkingreturn" unicode="&#xd;" horiz-adv-x="490" 
 />
    <glyph glyph-name="space" unicode=" " horiz-adv-x="490" 
 />
    <glyph glyph-name="exclam" unicode="!" horiz-adv-x="397" 
d="M221 401h-54v1055h54v-1055zM147 49q0 23 16 39.5t39 16.5t39.5 -16.5t16.5 -39.5t-16.5 -39t-39.5 -16t-39 16t-16 39z" />
    <glyph glyph-name="quotedbl" unicode="&#x22;" horiz-adv-x="521" 
d="M210 1393l-10 -271h-50l5 268v146h55v-143zM411 1393l-10 -271h-50l6 268v146h54v-143z" />
    <glyph glyph-name="numbersign" unicode="#" horiz-adv-x="1265" 
d="M756 410h-364l-74 -410h-56l74 410h-271v52h281l95 524h-300v54h310l75 416h56l-76 -416h365l76 416h56l-76 -416h254v-54h-264l-96 -524h285v-52h-294l-75 -410h-56zM402 462h363l96 524h-365z" />
    <glyph glyph-name="dollar" unicode="$" 
d="M947 344q0 65 -18 115t-61 91t-114.5 77.5t-177.5 74.5q-95 32 -170.5 66t-128.5 80t-81 109t-28 153q0 80 27 146t77.5 113.5t121.5 75.5t160 31v187h55v-187q90 -5 161 -35t120.5 -84.5t76 -132t26.5 -177.5h-54q0 81 -23.5 150t-69 119.5t-112.5 79t-155 28.5
q-92 0 -159 -26.5t-111 -70t-65.5 -100t-21.5 -115.5q0 -62 14 -111t54.5 -91t113 -79.5t189.5 -76.5q92 -32 167 -65.5t128.5 -80t83 -109.5t29.5 -153q0 -81 -27.5 -146.5t-77.5 -112.5t-120 -74.5t-156 -32.5v-188h-55v187q-83 3 -163 26.5t-142.5 74t-100.5 131.5
t-38 198h54q0 -108 37.5 -180.5t96.5 -116t132.5 -62t144.5 -18.5q85 0 152 26t113.5 69.5t71 100t24.5 116.5z" />
    <glyph glyph-name="percent" unicode="%" horiz-adv-x="1527" 
d="M114 1176q0 62 19.5 116.5t55.5 95.5t86 65t111 24t111 -24t85.5 -65t55 -95.5t19.5 -116.5v-77q0 -61 -19.5 -115.5t-54.5 -95t-85 -64.5t-110 -24q-62 0 -112.5 24t-86.5 64.5t-55.5 95t-19.5 115.5v77zM169 1099q0 -45 13.5 -89t40.5 -78.5t68 -55.5t97 -21
q54 0 94.5 21t67 55.5t39.5 78t13 89.5v77q0 46 -13 90.5t-40 79t-67.5 55.5t-95.5 21q-54 0 -94.5 -21t-68 -55.5t-41 -79t-13.5 -90.5v-77zM870 357q0 61 19.5 116t55 95.5t85.5 64.5t111 24t111.5 -24t86 -64.5t55 -95.5t19.5 -116v-78q0 -62 -19.5 -116.5t-55 -95
t-85 -64.5t-110.5 -24q-62 0 -112 24t-86 64.5t-55.5 95t-19.5 116.5v78zM925 279q0 -46 13 -90t40 -78.5t68 -55.5t97 -21q55 0 95.5 21t67 55.5t39.5 78.5t13 90v78q0 50 -13 94.5t-40 78t-68 53t-96 19.5q-54 0 -94.5 -19.5t-67.5 -53t-40.5 -78t-13.5 -94.5v-78z
M422 131l-45 31l711 1138l45 -31z" />
    <glyph glyph-name="ampersand" unicode="&#x26;" horiz-adv-x="1247" 
d="M422 802q-40 49 -70.5 94.5t-51.5 90t-32 89t-11 91.5q0 68 21 125t61 98t96 64t127 23q67 0 118.5 -21t86.5 -57t53 -84t18 -102q0 -46 -19.5 -89.5t-48.5 -81.5t-62.5 -69.5t-61.5 -54.5l-152 -121l475 -539q54 75 84.5 168.5t30.5 205.5h55q0 -130 -36 -232t-97 -184
l190 -216h-67l-157 176q-42 -42 -89 -78t-99.5 -62.5t-111 -41t-123.5 -14.5q-101 0 -181.5 26t-136.5 74.5t-86 117t-30 154.5q0 62 20.5 117.5t55.5 106t81.5 96.5t98.5 90zM549 34q111 0 211.5 47.5t176.5 135.5l-449 508q-9 10 -17.5 19.5t-16.5 19.5l-52 -41
q-75 -65 -120.5 -118.5t-70.5 -98.5t-33.5 -83t-8.5 -71q0 -62 23 -119.5t70 -101.5t118.5 -70.5t168.5 -26.5zM312 1169q0 -76 36 -159.5t114 -175.5l159 126q32 25 61 54t51.5 61t35.5 66.5t13 71.5q0 41 -14 79t-42 67t-69 46.5t-95 17.5q-61 0 -108 -20.5t-78.5 -55
t-47.5 -80.5t-16 -98z" />
    <glyph glyph-name="quotesingle" unicode="'" horiz-adv-x="340" 
d="M200 1367l-14 -245h-50l9 243v171h55v-169z" />
    <glyph glyph-name="parenleft" unicode="(" horiz-adv-x="607" 
d="M148 586q0 115 15 227t42.5 215.5t66 196t84.5 169.5t98 135.5t108 93.5l19 -43q-74 -49 -142.5 -149t-121 -233t-84 -289.5t-31.5 -318.5v-26q0 -108 14.5 -214.5t40 -205.5t61 -188.5t77.5 -163.5t89 -130t97 -89l-19 -43q-84 53 -159 153t-131.5 235.5t-90 300.5
t-33.5 347v20z" />
    <glyph glyph-name="parenright" unicode=")" horiz-adv-x="623" 
d="M461 566q0 -182 -33.5 -347t-90 -300.5t-131.5 -235.5t-159 -153l-19 43q49 33 96.5 89t89.5 130t77.5 163.5t61 188.5t40 205.5t14.5 214.5v26q0 162 -31.5 318.5t-84 289.5t-121 233t-142.5 149l19 43q56 -35 108 -93.5t98 -135.5t84.5 -169.5t66 -196t42.5 -215.5
t15 -227v-20z" />
    <glyph glyph-name="asterisk" unicode="*" horiz-adv-x="856" 
d="M393 1017l-363 124l18 54l362 -133l1 394h56l-7 -395l352 143l20 -53l-360 -137l249 -317l-47 -33l-242 322l-228 -325l-45 32z" />
    <glyph glyph-name="plus" unicode="+" horiz-adv-x="1151" 
d="M590 702h481v-53h-481v-503h-55v503h-462v53h462v504h55v-504z" />
    <glyph glyph-name="comma" unicode="," horiz-adv-x="383" 
d="M235 27q0 -93 -29 -162t-77 -120l-37 32q45 58 67 114.5t22 133.5v134h54v-132z" />
    <glyph glyph-name="hyphen" unicode="-" horiz-adv-x="607" 
d="M531 639h-470v54h470v-54z" />
    <glyph glyph-name="period" unicode="." horiz-adv-x="439" 
d="M147 49q0 23 16 39.5t39 16.5t39.5 -16.5t16.5 -39.5t-16.5 -39t-39.5 -16t-39 16t-16 39z" />
    <glyph glyph-name="slash" unicode="/" horiz-adv-x="782" 
d="M101 -125h-59l608 1581h59z" />
    <glyph glyph-name="zero" unicode="0" 
d="M996 594q0 -143 -28 -256.5t-83 -193t-136 -122t-187 -42.5q-105 0 -186 42.5t-137 122t-85 193t-29 256.5v268q0 142 28.5 256t84 194t136.5 122.5t186 42.5t186.5 -42.5t137 -122.5t84 -194t28.5 -256v-268zM942 862q0 125 -23.5 228.5t-71 177.5t-119 114.5
t-168.5 40.5q-96 0 -168 -40.5t-119 -114.5t-70.5 -177.5t-23.5 -228.5v-266q0 -123 23.5 -226t71.5 -178t120 -116.5t168 -41.5q97 0 168.5 41.5t118.5 116.5t70 178t23 226v266z" />
    <glyph glyph-name="one" unicode="1" 
d="M659 0h-54v1388l-418 -157v59l461 170h11v-1460z" />
    <glyph glyph-name="two" unicode="2" 
d="M1024 0h-871v54l477 550q68 78 117 145t81 125.5t47.5 110.5t15.5 100q0 77 -22.5 139.5t-67.5 106.5t-111.5 67.5t-153.5 23.5q-78 0 -145 -28.5t-116 -79t-76.5 -119.5t-27.5 -150h-54q0 88 30.5 166.5t86 137.5t132.5 93t170 34q94 0 169.5 -25t129 -74.5t82.5 -122.5
t29 -169q0 -68 -26 -136t-68.5 -136t-96.5 -135t-109 -132l-422 -492h800v-54z" />
    <glyph glyph-name="three" unicode="3" 
d="M417 770h111q96 0 169 25.5t123 69t75.5 100.5t25.5 120q0 69 -21 130t-64.5 107t-111 73t-160.5 27q-79 0 -147.5 -24t-119.5 -69t-80 -109.5t-29 -145.5h-54q0 93 34.5 167.5t93 126.5t136.5 80t166 28q94 0 170 -27.5t129.5 -78.5t82.5 -124t29 -165q0 -58 -19 -110.5
t-54 -96t-85.5 -77t-113.5 -52.5q143 -33 223.5 -124t80.5 -235q0 -97 -32.5 -172.5t-90.5 -127.5t-137.5 -79t-173.5 -27q-55 0 -111 11t-108 34t-98 57.5t-80 81.5t-53.5 107t-19.5 134h54q0 -81 31.5 -149t87.5 -117.5t132 -77t165 -27.5q91 0 161.5 24t119 69t74 109.5
t25.5 145.5q0 89 -31.5 152t-88 103t-134.5 58.5t-171 18.5h-111v56z" />
    <glyph glyph-name="four" unicode="4" 
d="M842 451h252v-54h-252v-397h-54v397h-706v30l695 1029h65v-1005zM166 451h622v940l-84 -138z" />
    <glyph glyph-name="five" unicode="5" 
d="M231 762l68 694h710v-53h-661l-59 -584q18 15 49 32.5t70.5 31.5t87 23.5t98.5 9.5q94 0 173 -30.5t136 -89t89 -142.5t32 -190q0 -105 -22.5 -193.5t-72 -153t-127.5 -101t-188 -36.5q-86 0 -161 24.5t-132.5 74.5t-94 126t-44.5 178h55q16 -171 112 -260t265 -89
q180 0 267.5 108.5t87.5 319.5q0 85 -24.5 158.5t-72 127t-117.5 84t-160 30.5q-58 0 -105 -8t-86 -23t-71.5 -36.5t-60.5 -48.5z" />
    <glyph glyph-name="six" unicode="6" 
d="M840 1476v-54h-19q-125 0 -238 -39.5t-199.5 -123t-140 -214t-60.5 -312.5q27 48 68 89t93.5 71t115 47t132.5 17q100 0 178.5 -36t132.5 -100t82 -151t28 -190q0 -106 -30 -197.5t-84.5 -158.5t-130 -105.5t-166.5 -38.5q-101 0 -188 35.5t-150.5 102t-99.5 161.5
t-36 213v168q0 218 55 372.5t149.5 253t220.5 144.5t268 46h19zM585 903q-70 0 -136.5 -21.5t-120.5 -59t-92.5 -89.5t-53.5 -112v-128q0 -104 31 -189t86.5 -145t133 -93t169.5 -33q82 0 148 36.5t112.5 98.5t71.5 142.5t25 169.5q0 88 -23 165.5t-69.5 134.5t-117 90
t-164.5 33z" />
    <glyph glyph-name="seven" unicode="7" 
d="M1007 1422l-641 -1422h-55l634 1402h-868v54h930v-34z" />
    <glyph glyph-name="eight" unicode="8" 
d="M986 1086q0 -62 -20 -116.5t-56 -98t-85.5 -76t-109.5 -50.5q68 -18 125.5 -52t99 -81.5t65 -106t23.5 -126.5q0 -99 -36 -174t-99 -125t-147.5 -75t-180.5 -25q-99 0 -184 25t-147.5 75t-98 125t-35.5 174q0 68 22.5 126.5t63 106t97.5 81.5t125 52q-60 18 -109 50.5
t-84 76t-54.5 98t-19.5 116.5q0 95 32 167.5t88.5 122t133.5 75t166 25.5q88 0 165.5 -25.5t135 -75t91 -122t33.5 -167.5zM973 374q0 79 -32 142.5t-87.5 108.5t-130.5 69t-160 24q-87 0 -161.5 -24t-129.5 -69t-86.5 -108.5t-31.5 -142.5q0 -83 31.5 -146t86.5 -106.5
t130.5 -65.5t162.5 -22q85 0 159.5 22t129.5 65.5t87 106.5t32 146zM932 1091q0 73 -29 133.5t-79.5 104.5t-118 68.5t-144.5 24.5q-78 0 -145 -23t-116 -65.5t-77 -104t-28 -138.5q0 -74 28 -133t77 -100.5t116.5 -63.5t146.5 -22q77 0 144 22t117 63.5t79 100.5t29 133z
" />
    <glyph glyph-name="nine" unicode="9" 
d="M332 34q157 0 271.5 47.5t189 136.5t110.5 215.5t36 284.5v6q-27 -59 -69.5 -106t-96 -80.5t-117 -51.5t-133.5 -18q-96 0 -173.5 39.5t-132.5 107t-84.5 156t-29.5 187.5q0 106 30.5 200t87 164.5t135.5 112t175 41.5q109 0 195 -35.5t145 -107t90.5 -179t31.5 -251.5
v-163q0 -182 -40.5 -323t-122.5 -238.5t-206 -148t-292 -50.5h-34l2 54h32zM523 522q91 0 161.5 29.5t122.5 75.5t84.5 102.5t47.5 110.5v62q0 130 -27.5 227.5t-79.5 162.5t-127 97.5t-170 32.5q-87 0 -157 -39.5t-119 -104t-75.5 -148.5t-26.5 -172q0 -84 24.5 -162.5
t71.5 -139.5t115 -97.5t155 -36.5z" />
    <glyph glyph-name="colon" unicode=":" horiz-adv-x="364" 
d="M120 49q0 23 16 39.5t39 16.5t39.5 -16.5t16.5 -39.5t-16.5 -39t-39.5 -16t-39 16t-16 39zM125 1011q0 23 16 39.5t39 16.5t39.5 -16.5t16.5 -39.5t-16.5 -39t-39.5 -16t-39 16t-16 39z" />
    <glyph glyph-name="semicolon" unicode=";" horiz-adv-x="364" 
d="M126 1011q0 23 16 39.5t39 16.5t39.5 -16.5t16.5 -39.5t-16.5 -39t-39.5 -16t-39 16t-16 39zM224 27q0 -93 -29 -162t-77 -120l-37 32q45 58 67 114.5t22 133.5v134h54v-132z" />
    <glyph glyph-name="less" unicode="&#x3c;" horiz-adv-x="1053" 
d="M155 666l764 -345v-59l-837 379v50l837 378v-58z" />
    <glyph glyph-name="equal" unicode="=" horiz-adv-x="1142" 
d="M981 843h-834v54h834v-54zM981 436h-834v54h834v-54z" />
    <glyph glyph-name="greater" unicode="&#x3e;" horiz-adv-x="1053" 
d="M872 668l-758 345v59l836 -378v-50l-836 -379v59z" />
    <glyph glyph-name="question" unicode="?" horiz-adv-x="893" 
d="M395 400q1 55 9 100t26.5 85t48.5 77t74 78q46 44 82 82t61 79.5t38 91.5t13 119q0 67 -18 124t-54 98.5t-90.5 65t-126.5 23.5t-129.5 -22.5t-97 -63.5t-61.5 -97.5t-23 -123.5h-54q1 86 30.5 153t79.5 113t115.5 70t139.5 24q84 0 148 -28t107.5 -77t65.5 -116t22 -145
q0 -66 -13.5 -119.5t-40.5 -101.5t-68.5 -94t-97.5 -97q-74 -58 -103 -135t-29 -163h-54zM371 49q0 23 16 39.5t39 16.5t39.5 -16.5t16.5 -39.5t-16.5 -39t-39.5 -16t-39 16t-16 39z" />
    <glyph glyph-name="at" unicode="@" horiz-adv-x="1902" 
d="M1767 523q-2 -64 -13 -129t-31.5 -125.5t-50.5 -113t-70 -91.5t-91.5 -61.5t-113.5 -22.5q-100 0 -162 61t-73 169q-110 -230 -333 -230q-68 0 -119.5 32.5t-83.5 92.5t-44.5 144t-3.5 187q12 126 49.5 228t95.5 174t132.5 111t159.5 39q47 0 82.5 -9t65 -24.5t54 -35.5
t48.5 -41l-49 -585q-5 -58 2 -99.5t22.5 -70.5t36 -46t43 -26.5t43.5 -12.5t37 -3q73 0 128.5 37t94.5 102t60.5 154.5t26.5 194.5q10 191 -25.5 345t-122.5 262t-227 166t-338 58q-110 0 -211 -27.5t-189 -80t-161 -128.5t-126.5 -173.5t-86 -214.5t-39.5 -252
q-9 -186 34.5 -346t136.5 -277.5t232.5 -185t322.5 -67.5q44 0 89.5 5.5t88.5 16t82 25.5t70 33l24 -46q-32 -21 -75.5 -38t-91.5 -28t-97.5 -17t-93.5 -6q-190 0 -338.5 64.5t-249 185.5t-149.5 293.5t-40 387.5q9 214 75.5 386.5t180.5 294t270.5 187t345.5 65.5
q207 0 355.5 -62.5t242.5 -178t135.5 -279.5t32.5 -368zM632 436q-9 -84 -1.5 -157t31.5 -127.5t65 -86t100 -31.5q46 0 92.5 12t90.5 46t83.5 94.5t71.5 157.5l43 507q-32 38 -80.5 60t-115.5 22q-66 0 -128 -29.5t-113.5 -90t-88 -154.5t-50.5 -223z" />
    <glyph glyph-name="A" unicode="A" horiz-adv-x="1223" 
d="M967 435h-713l-162 -435h-59l545 1456h66l545 -1456h-59zM274 489h673l-336 902z" />
    <glyph glyph-name="B" unicode="B" horiz-adv-x="1235" 
d="M200 0v1456h383q110 0 198.5 -22t150 -68t94.5 -116.5t33 -166.5q0 -63 -16.5 -118.5t-49 -98.5t-80.5 -72t-110 -41q68 -9 127 -40t102.5 -78.5t68 -107.5t24.5 -126q0 -97 -33 -172t-92.5 -126t-142.5 -77t-182 -26h-475zM254 719v-665h421q92 0 165.5 23.5t124.5 67.5
t78.5 108.5t27.5 145.5q0 63 -24 120.5t-72 102t-120.5 71t-169.5 26.5h-431zM254 773h349q199 0 300 76.5t101 237.5q0 158 -106 236.5t-315 78.5h-329v-629z" />
    <glyph glyph-name="C" unicode="C" horiz-adv-x="1327" 
d="M1190 446q-11 -118 -52.5 -205.5t-108.5 -145.5t-158 -86.5t-200 -28.5q-120 0 -217.5 46.5t-166 130.5t-106 201.5t-37.5 260.5v218q0 142 37.5 260t106 202t166 130.5t217.5 46.5q109 0 200 -29t158 -86.5t108.5 -144.5t52.5 -204h-54q-23 201 -140 305.5t-325 104.5
q-106 0 -193 -41.5t-149.5 -118t-96.5 -184t-34 -239.5v-220q0 -132 34 -240t96.5 -184.5t149.5 -118.5t193 -42q101 0 182 24.5t140.5 75t95.5 128t47 184.5h54z" />
    <glyph glyph-name="D" unicode="D" horiz-adv-x="1340" 
d="M200 0v1456h403q129 0 239 -46.5t190.5 -131t126 -202t45.5 -259.5v-178q0 -142 -45.5 -259.5t-126 -202t-190.5 -131t-239 -46.5h-403zM254 1402v-1348h349q117 0 217.5 43.5t173.5 121t114.5 185t41.5 235.5v181q0 127 -41.5 234t-114.5 184t-173.5 120.5t-217.5 43.5
h-349z" />
    <glyph glyph-name="E" unicode="E" horiz-adv-x="1166" 
d="M984 722h-730v-668h832v-54h-886v1456h886v-54h-832v-626h730v-54z" />
    <glyph glyph-name="F" unicode="F" horiz-adv-x="1172" 
d="M1000 716h-746v-716h-54v1456h902v-54h-848v-630h746v-56z" />
    <glyph glyph-name="G" unicode="G" horiz-adv-x="1406" 
d="M1226 156q-18 -25 -57.5 -55.5t-102 -57.5t-147 -45t-190.5 -18q-125 0 -228 46.5t-177 131t-115 202t-41 260.5v238q0 138 40 251.5t112 195t172 126.5t220 45q118 0 209 -32t155 -87.5t101 -131.5t47 -163h-54q-11 71 -41.5 136.5t-85 115t-136 79t-195.5 29.5
q-111 0 -201.5 -41.5t-154.5 -116.5t-99 -178t-35 -226v-240q0 -129 36 -236.5t102 -185t159.5 -121t209.5 -43.5q89 0 163 14.5t130.5 36.5t94.5 48t55 48v424h-445v55h499v-504z" />
    <glyph glyph-name="H" unicode="H" horiz-adv-x="1438" 
d="M1238 0h-54v722h-930v-722h-54v1456h54v-680h930v680h54v-1456z" />
    <glyph glyph-name="I" unicode="I" horiz-adv-x="534" 
d="M294 0h-54v1456h54v-1456z" />
    <glyph glyph-name="J" unicode="J" horiz-adv-x="1125" 
d="M876 1456h54v-1014q0 -112 -32.5 -198.5t-89 -145t-133 -88.5t-165.5 -30q-96 0 -174 25.5t-132.5 78t-84 131.5t-29.5 186h54q0 -178 91.5 -272.5t274.5 -94.5q75 0 141.5 26t116.5 77t79 127.5t29 177.5v1014z" />
    <glyph glyph-name="K" unicode="K" horiz-adv-x="1300" 
d="M487 766l-233 -215v-551h-54v1456h54v-842l238 233l606 609h78l-649 -653l699 -803h-70z" />
    <glyph glyph-name="L" unicode="L" horiz-adv-x="1057" 
d="M255 54h747v-54h-802v1456h55v-1402z" />
    <glyph glyph-name="M" unicode="M" horiz-adv-x="1756" 
d="M277 1456l599 -1377l601 1377h79v-1456h-54v1376l-604 -1376h-43l-601 1369v-1369h-54v1456h77z" />
    <glyph glyph-name="N" unicode="N" horiz-adv-x="1449" 
d="M1249 0h-54l-940 1364v-1364h-55v1456h55l940 -1361v1361h54v-1456z" />
    <glyph glyph-name="O" unicode="O" horiz-adv-x="1364" 
d="M1231 619q0 -143 -38.5 -260.5t-110 -201.5t-172.5 -130.5t-227 -46.5q-125 0 -226.5 46.5t-173.5 130.5t-111 201.5t-39 260.5v218q0 142 38.5 260t110 202t173 130.5t226.5 46.5q126 0 227.5 -46.5t173 -130.5t110.5 -202t39 -260v-218zM1177 839q0 128 -33.5 235
t-97 184.5t-155.5 120.5t-210 43q-117 0 -208.5 -43t-155 -120.5t-96.5 -184.5t-33 -235v-220q0 -129 33.5 -236.5t97 -185t155.5 -120.5t209 -43q118 0 210 43t155 120.5t96 185t33 236.5v220z" />
    <glyph glyph-name="P" unicode="P" horiz-adv-x="1230" 
d="M254 615v-615h-54v1456h455q116 0 204 -30.5t147 -86t89 -134t30 -174.5t-29.5 -173t-88.5 -131t-147 -83t-205 -29h-401zM254 669h401q110 0 189 28.5t129.5 77.5t74 114.5t23.5 139.5q0 77 -23.5 145t-74 118.5t-129.5 80t-189 29.5h-401v-733z" />
    <glyph glyph-name="Q" unicode="Q" horiz-adv-x="1364" 
d="M1231 619q0 -104 -21 -195.5t-60.5 -166.5t-96.5 -131.5t-129 -92.5l267 -261l-39 -35l-284 273q-42 -14 -88 -22t-97 -8q-125 0 -226.5 46.5t-173.5 130.5t-111 201.5t-39 260.5v218q0 142 38.5 260t110 202t173 130.5t226.5 46.5q126 0 227.5 -46.5t173 -130.5
t110.5 -202t39 -260v-218zM1177 839q0 128 -33.5 235t-97 184.5t-155.5 120.5t-210 43q-117 0 -208.5 -43t-155 -120.5t-96.5 -184.5t-33 -235v-220q0 -129 33.5 -236.5t97 -185t155.5 -120.5t209 -43q118 0 210 43t155 120.5t96 185t33 236.5v220z" />
    <glyph glyph-name="R" unicode="R" horiz-adv-x="1340" 
d="M754 623h-505v-623h-54v1456h464q104 0 192 -27.5t151.5 -81t99 -131.5t35.5 -180q0 -78 -25.5 -145t-70 -119.5t-104 -87t-128.5 -47.5l389 -623v-14h-57zM249 677h459q93 0 163.5 30.5t117.5 81t70.5 115t23.5 132.5q0 86 -30 154t-85.5 115t-133.5 72t-175 25h-410
v-725z" />
    <glyph glyph-name="S" unicode="S" horiz-adv-x="1211" 
d="M1072 349q0 69 -24 122.5t-77 97t-138.5 79.5t-209.5 70q-111 30 -200 64t-151.5 79.5t-95.5 108t-33 150.5q0 83 37 149t101.5 112t153 70.5t191.5 24.5q106 0 195 -31t153.5 -87.5t100.5 -136t36 -175.5h-54q0 81 -31 149.5t-87.5 119t-136 79t-176.5 28.5
q-103 0 -183 -24.5t-134.5 -66t-83 -96t-28.5 -113.5q0 -58 20 -107.5t70 -92.5t135 -80.5t216 -71.5q108 -28 197.5 -62.5t154.5 -83t101 -115t36 -158.5q0 -89 -39 -158.5t-106 -116.5t-157 -71.5t-192 -24.5q-62 0 -126 9.5t-124 30t-112 53.5t-91 81t-61.5 111.5
t-22.5 145.5h54q0 -73 21 -129t57.5 -98t84.5 -70.5t101.5 -46.5t109.5 -25.5t109 -7.5q96 0 176.5 23t139 64.5t91 99.5t32.5 128z" />
    <glyph glyph-name="T" unicode="T" horiz-adv-x="1224" 
d="M1169 1402h-530v-1402h-54v1402h-530v54h1114v-54z" />
    <glyph glyph-name="U" unicode="U" horiz-adv-x="1365" 
d="M1180 1456v-987q0 -123 -37.5 -214.5t-104.5 -152.5t-158 -91.5t-197 -30.5q-107 0 -198 30.5t-157.5 91.5t-104.5 152.5t-38 214.5v987h54v-987q0 -105 34 -186.5t93.5 -136.5t140.5 -83.5t176 -28.5q94 0 175.5 28.5t140.5 83.5t93 136.5t34 186.5v987h54z" />
    <glyph glyph-name="V" unicode="V" horiz-adv-x="1223" 
d="M583 142l29 -88l29 88l489 1314h59l-544 -1456h-66l-544 1456h59z" />
    <glyph glyph-name="W" unicode="W" horiz-adv-x="1855" 
d="M423 330l66 -240l66 240l344 1126h60l342 -1126l65 -240l68 240l300 1126h59l-392 -1456h-61l-361 1214l-51 154l-49 -154l-364 -1214h-61l-393 1456h60z" />
    <glyph glyph-name="X" unicode="X" horiz-adv-x="1223" 
d="M611 785l470 671h68l-504 -713l523 -743h-67l-490 701l-492 -701h-65l523 743l-504 713h68z" />
    <glyph glyph-name="Y" unicode="Y" horiz-adv-x="1223" 
d="M609 602l510 854h66l-549 -903v-553h-54v553l-549 903h72z" />
    <glyph glyph-name="Z" unicode="Z" horiz-adv-x="1224" 
d="M168 54h962v-54h-1036v44l929 1359h-889v53h964v-38z" />
    <glyph glyph-name="bracketleft" unicode="[" horiz-adv-x="439" 
d="M464 1610h-229v-1868h229v-54h-283v1976h283v-54z" />
    <glyph glyph-name="backslash" unicode="\" horiz-adv-x="774" 
d="M57 1456h58l608 -1581h-58z" />
    <glyph glyph-name="bracketright" unicode="]" horiz-adv-x="439" 
d="M-8 1664h283v-1976h-283v54h228v1868h-228v54z" />
    <glyph glyph-name="asciicircum" unicode="^" horiz-adv-x="849" 
d="M416 1382l-266 -653h-59l299 727h52l299 -727h-61z" />
    <glyph glyph-name="underscore" unicode="_" horiz-adv-x="845" 
d="M845 -54h-846v54h846v-54z" />
    <glyph glyph-name="grave" unicode="`" horiz-adv-x="537" 
d="M403 1250h-59l-195 266h66z" />
    <glyph glyph-name="a" unicode="a" horiz-adv-x="1081" 
d="M871 0q-11 38 -15.5 91.5t-4.5 106.5q-27 -44 -67 -83.5t-93 -69.5t-119 -47.5t-147 -17.5q-76 0 -137.5 21.5t-105 60.5t-67 93t-23.5 119q0 72 34 133t98.5 104.5t157.5 68t210 24.5h259v158q0 136 -85.5 211t-244.5 75q-74 0 -137 -20t-109.5 -55.5t-73 -84
t-26.5 -104.5l-54 2q0 63 29.5 120.5t83 101t127 69t160.5 25.5q84 0 154.5 -21.5t121.5 -64t79.5 -107t28.5 -149.5v-542q0 -29 2 -59.5t5.5 -58t8.5 -51.5t12 -40v-9h-62zM425 33q78 0 144.5 18t120 52t94 81.5t67.5 107.5v257h-256q-105 0 -188 -20.5t-141 -57.5
t-89 -88.5t-31 -112.5q0 -49 20.5 -92t57.5 -75.5t88 -51t113 -18.5z" />
    <glyph glyph-name="b" unicode="b" 
d="M999 531q0 -124 -27.5 -225.5t-79.5 -174t-127.5 -112t-171.5 -39.5q-67 0 -123.5 14.5t-102.5 40t-82 60.5t-61 76v-171h-54v1536h54v-651q26 49 61.5 89t81.5 68.5t102 44t122 15.5q96 0 172 -38t128.5 -109t80 -173t27.5 -230v-21zM943 552q0 108 -21.5 199t-65 157
t-109.5 103t-155 37q-87 0 -150 -25.5t-106.5 -66t-70 -89.5t-41.5 -97v-496q19 -51 51 -95t77.5 -76.5t106 -50.5t135.5 -18q88 0 154 37t109 103.5t64.5 157.5t21.5 199v21z" />
    <glyph glyph-name="c" unicode="c" horiz-adv-x="1039" 
d="M539 34q63 0 123.5 17t108.5 52.5t79 91t36 133.5h54q-4 -83 -37.5 -147.5t-88 -109t-125.5 -68t-150 -23.5q-105 0 -187.5 40t-139 111.5t-86 170.5t-29.5 218v42q0 119 29.5 218t86 170.5t138 111.5t186.5 40q78 0 149.5 -24t126.5 -71.5t89 -118t38 -163.5h-54
q-4 81 -34 141.5t-77.5 101t-109 60.5t-128.5 20q-99 0 -172 -38t-120.5 -104t-70.5 -154.5t-23 -189.5v-42q0 -102 23 -190.5t71 -154t121 -103.5t173 -38z" />
    <glyph glyph-name="d" unicode="d" 
d="M122 552q0 128 27.5 230t80 173t128.5 109t172 38q67 0 123 -16t101.5 -44.5t81 -69t61.5 -89.5v653h54v-1536h-54v173q-25 -42 -60.5 -77t-82 -61t-103 -40.5t-123.5 -14.5q-96 0 -171.5 39.5t-127.5 112t-79.5 174t-27.5 225.5v21zM178 531q0 -108 21.5 -199
t64.5 -157.5t108.5 -103.5t154.5 -37q74 0 134 17.5t106 49t78 74.5t52 93v507q-16 47 -43 95.5t-70.5 88t-106 64.5t-148.5 25q-89 0 -155 -37t-109.5 -103t-65 -157t-21.5 -199v-21z" />
    <glyph glyph-name="e" unicode="e" horiz-adv-x="1032" 
d="M561 -20q-99 0 -185 40t-150.5 111.5t-101.5 170t-37 216.5v44q0 118 36 217.5t97.5 171t144 111.5t176.5 40q90 0 165.5 -33.5t130 -94.5t85 -146t30.5 -188v-63h-811v-15v-44q0 -101 32 -189.5t88.5 -154t133.5 -103.5t166 -38q46 0 89.5 7t83.5 24t77 45.5t71 72.5
l38 -27q-27 -39 -62 -71t-79.5 -55t-98.5 -36t-119 -13zM541 1048q-82 0 -150.5 -32t-120.5 -88.5t-84.5 -132.5t-41.5 -164h754v13q0 81 -25.5 154.5t-72 129t-112.5 88t-147 32.5z" />
    <glyph glyph-name="f" unicode="f" horiz-adv-x="645" 
d="M254 0v1027h-188v55h188v154q0 78 19.5 137.5t56 100.5t89 62t118.5 21q31 0 63.5 -3.5t64.5 -13.5l-8 -52q-14 4 -27 6.5t-26.5 4.5t-29.5 3t-36 1q-107 0 -168.5 -69.5t-61.5 -197.5v-154h286v-55h-286v-1027h-54z" />
    <glyph glyph-name="g" unicode="g" horiz-adv-x="1123" 
d="M121 552q0 128 27.5 230t80 173t128.5 109t172 38q66 0 122 -16t101.5 -44.5t81 -68.5t61.5 -89v198h55v-1067q0 -104 -28 -187.5t-81 -142t-128.5 -90t-171.5 -31.5q-59 0 -111 13.5t-96 37.5t-81 57.5t-66 73.5l38 36q63 -80 138 -122.5t176 -42.5q88 0 154.5 28
t111.5 80t67.5 125.5t22.5 164.5v156q-25 -41 -60.5 -76t-81.5 -60.5t-102.5 -40t-123.5 -14.5q-96 0 -171.5 39.5t-127.5 112t-79.5 174t-27.5 225.5v21zM176 531q0 -108 21.5 -199t65 -157.5t109 -103.5t154.5 -37q76 0 136 18.5t106 51t77.5 76.5t49.5 96v491
q-15 48 -41 98t-69 90.5t-106 66.5t-151 26q-89 0 -155.5 -37t-110 -103t-65 -157t-21.5 -199v-21z" />
    <glyph glyph-name="h" unicode="h" 
d="M226 830q24 57 61.5 107t86.5 86.5t108.5 57.5t127.5 21q82 0 146 -22.5t108 -71t67 -124.5t23 -184v-700h-54v700q0 103 -21.5 170.5t-60.5 107t-93 55.5t-118 16q-59 0 -108 -16.5t-88.5 -44.5t-70.5 -64t-53.5 -76t-37.5 -80t-23 -75v-693h-54v1536h54v-706z" />
    <glyph glyph-name="i" unicode="i" horiz-adv-x="422" 
d="M239 0h-54v1082h54v-1082zM157 1420q0 23 16 39.5t39 16.5t39.5 -16.5t16.5 -39.5t-16.5 -39t-39.5 -16t-39 16t-16 39z" />
    <glyph glyph-name="j" unicode="j" horiz-adv-x="445" 
d="M240 1082v-1211q0 -150 -75 -229t-210 -79q-49 0 -98 20l3 52q16 -6 41.5 -12t53.5 -6q112 0 171.5 66.5t59.5 187.5v1211h54zM163 1420q0 23 16 39.5t39 16.5t39.5 -16.5t16.5 -39.5t-16.5 -39t-39.5 -16t-39 16t-16 39z" />
    <glyph glyph-name="k" unicode="k" horiz-adv-x="969" 
d="M385 585l-2 -2l-157 -135v-448h-54v1536h54v-1029l127 120l492 455h77l-497 -461l528 -621h-70z" />
    <glyph glyph-name="l" unicode="l" horiz-adv-x="422" 
d="M239 0h-54v1536h54v-1536z" />
    <glyph glyph-name="m" unicode="m" horiz-adv-x="1836" 
d="M946 0h-54v720q0 97 -22 160.5t-61.5 101t-94 52.5t-118.5 15q-90 0 -157 -37t-113 -92.5t-73 -119t-37 -116.5v-684h-55v1082h55v-256q24 58 60.5 108.5t85.5 87.5t108.5 58.5t128.5 21.5q136 0 222.5 -60t113.5 -196q22 54 59.5 100.5t88.5 81t114 54.5t136 20
q82 0 146.5 -22.5t109 -71t68 -124.5t23.5 -184v-700h-54v700q0 103 -22 171t-61.5 107.5t-94 55.5t-118.5 15t-116.5 -17.5t-94.5 -43.5t-73 -61.5t-52.5 -70.5t-33.5 -71.5t-14 -64.5v-720z" />
    <glyph glyph-name="n" unicode="n" 
d="M226 830q24 57 61.5 107t86.5 86.5t108.5 57.5t127.5 21q82 0 146 -22.5t108 -71t67 -124.5t23 -184v-700h-54v700q0 103 -21.5 170.5t-60.5 107t-93 55.5t-118 16q-59 0 -108 -16.5t-88.5 -44.5t-70.5 -64t-53.5 -76t-37.5 -80t-23 -75v-693h-54v1082h54v-252v0z" />
    <glyph glyph-name="o" unicode="o" horiz-adv-x="1127" 
d="M90 562q0 119 34.5 218t97 170.5t149.5 111.5t192 40q106 0 193.5 -40t149.5 -111.5t96.5 -170.5t34.5 -218v-42q0 -119 -34 -218t-96.5 -170.5t-149.5 -111.5t-192 -40q-106 0 -193.5 40t-150 111.5t-97 170.5t-34.5 218v42zM144 520q0 -97 28.5 -185t82.5 -155
t132 -106.5t178 -39.5q99 0 176.5 39.5t131 106.5t82 155t28.5 185v42q0 95 -28.5 182.5t-82.5 155t-132 108t-177 40.5t-177 -40.5t-131.5 -108t-82 -155t-28.5 -182.5v-42z" />
    <glyph glyph-name="p" unicode="p" 
d="M999 531q0 -124 -27.5 -225.5t-79.5 -174t-127.5 -112t-171.5 -39.5q-66 0 -122.5 14t-102.5 39t-82.5 59.5t-61.5 75.5v-584h-54v1498h54v-193q26 48 62 87t82 67t101.5 43.5t121.5 15.5q96 0 172 -38t128.5 -109t80 -173t27.5 -230v-21zM944 552q0 108 -21.5 199
t-65 157t-110 103t-155.5 37q-86 0 -148.5 -25t-106 -64.5t-71 -88t-42.5 -95.5v-506q19 -51 51.5 -94t78.5 -74.5t106 -49t134 -17.5q88 0 154 37t109.5 103.5t65 157.5t21.5 199v21z" />
    <glyph glyph-name="q" unicode="q" 
d="M122 552q0 128 27.5 230t80 173t128.5 109t172 38q66 0 121.5 -15.5t101.5 -43.5t82 -67t62 -87v193h54v-1498h-54v584q-26 -41 -62 -75.5t-82.5 -59.5t-102.5 -39t-122 -14q-96 0 -171.5 39.5t-127.5 112t-79.5 174t-27.5 225.5v21zM178 531q0 -108 21.5 -199
t64.5 -157.5t108.5 -103.5t154.5 -37q74 0 134 17.5t106 49t78 74.5t52 93v507q-16 46 -43.5 94t-71.5 88t-106.5 65.5t-146.5 25.5q-89 0 -155 -37t-109.5 -103t-65 -157t-21.5 -199v-21z" />
    <glyph glyph-name="r" unicode="r" horiz-adv-x="685" 
d="M649 1043q-16 2 -33.5 4t-36.5 2q-75 0 -135 -26t-104 -71.5t-72.5 -107.5t-41.5 -135v-709h-54v1082h54v-225q44 113 132 179t221 66q25 0 44 -3t32 -8z" />
    <glyph glyph-name="s" unicode="s" horiz-adv-x="1019" 
d="M839 265q0 37 -14 75t-51 73.5t-101 66t-164 52.5q-91 19 -159.5 43t-114.5 58.5t-69 82t-23 113.5q0 57 25 106.5t71.5 86.5t113.5 58.5t152 21.5q91 0 162.5 -22.5t121.5 -63t76.5 -97.5t26.5 -126h-55q0 50 -22 96t-64 81.5t-104 56.5t-142 21q-82 0 -140.5 -19.5
t-95.5 -51t-54.5 -70t-17.5 -76.5q0 -42 11.5 -77.5t47 -66t100 -57.5t169.5 -51q97 -22 166.5 -50t114.5 -65.5t66 -86.5t21 -113q0 -63 -26.5 -115t-76 -89.5t-120 -58.5t-157.5 -21q-98 0 -173.5 23.5t-127 64t-78 94t-26.5 113.5h54q5 -70 38.5 -116.5t83 -74t110 -39
t119.5 -11.5q80 0 141 20t102 53t62 74.5t21 83.5z" />
    <glyph glyph-name="t" unicode="t" horiz-adv-x="648" 
d="M293 1374v-292h246v-55h-246v-768q0 -71 13 -115t35.5 -68.5t52 -33t62.5 -8.5q31 0 55 2.5t52 6.5l9 -51q-11 -4 -26 -6t-31 -3.5t-31 -2t-25 -0.5q-52 0 -93 13t-69.5 45t-43.5 86t-15 135v768h-200v55h200v292h55z" />
    <glyph glyph-name="u" unicode="u" 
d="M897 0v175q-48 -90 -140 -142.5t-233 -52.5q-80 0 -145.5 22.5t-112 72t-72.5 128.5t-26 192v687h54v-689q0 -99 22.5 -167.5t62.5 -111t95 -61.5t120 -19q90 0 156 23t111 62t71 91t37 111v761h55v-1082h-55z" />
    <glyph glyph-name="v" unicode="v" horiz-adv-x="978" 
d="M490 86l389 996h58l-421 -1082h-53l-420 1082h58z" />
    <glyph glyph-name="w" unicode="w" horiz-adv-x="1550" 
d="M366 313l59 -233l74 233l243 769h55l242 -769l73 -233l61 233l220 769h63l-315 -1082h-54l-267 813l-51 194l-55 -194l-263 -813h-54l-314 1082h62z" />
    <glyph glyph-name="x" unicode="x" horiz-adv-x="978" 
d="M489 602l345 480h68l-380 -527l400 -555h-67l-367 508l-366 -508h-67l400 555l-380 527h68z" />
    <glyph glyph-name="y" unicode="y" horiz-adv-x="978" 
d="M503 84l7 20l374 978h60l-481 -1262q-13 -34 -31.5 -78.5t-50 -84t-80.5 -67t-123 -27.5q-8 0 -19.5 0.5t-23 2t-21.5 3.5t-16 5l-1 51q7 -2 18 -3.5t21.5 -3t19.5 -2t14 -0.5q50 0 87.5 16t65 44.5t48.5 67.5t38 86l65 176l-431 1076h59z" />
    <glyph glyph-name="z" unicode="z" horiz-adv-x="978" 
d="M160 54h770v-54h-843v44l711 983h-680v55h753v-48z" />
    <glyph glyph-name="braceleft" unicode="{" horiz-adv-x="660" 
d="M642 -441q-92 29 -153 75t-98 105.5t-52.5 130.5t-15.5 150v245q0 63 -14 114.5t-44.5 88t-78 56t-113.5 19.5v66q66 0 113.5 19.5t78 55.5t44.5 87t14 114v247q0 79 15.5 150.5t52.5 132t98 107t153 75.5l15 -45q-74 -24 -127 -64.5t-87 -94.5t-50 -120t-16 -141v-247
q0 -57 -12 -107.5t-37.5 -91t-65.5 -69t-96 -41.5q56 -14 96 -43t65.5 -69.5t37.5 -91t12 -107.5v-245q0 -75 17 -140t52 -118t88.5 -92.5t127.5 -64.5z" />
    <glyph glyph-name="bar" unicode="|" horiz-adv-x="406" 
d="M235 -270h-54v1726h54v-1726z" />
    <glyph glyph-name="braceright" unicode="}" horiz-adv-x="660" 
d="M0 -395q147 50 215.5 156.5t68.5 258.5v245q0 57 12 107.5t37.5 91t65.5 69.5t96 43q-56 13 -96 41.5t-65.5 69t-37.5 91t-12 107.5v247q0 75 -16 141t-49.5 120t-86.5 94.5t-127 64.5l14 45q92 -29 153.5 -75.5t98 -107t52 -132t15.5 -150.5v-247q0 -63 14.5 -114
t44.5 -87t77.5 -55.5t113.5 -19.5v-66q-66 0 -113.5 -19.5t-77.5 -56t-44.5 -88t-14.5 -114.5v-245q0 -79 -15.5 -150t-52 -130.5t-98 -105.5t-153.5 -75z" />
    <glyph glyph-name="asciitilde" unicode="~" horiz-adv-x="1412" 
d="M1246 752q0 -61 -16.5 -117t-50 -98.5t-84 -68t-118.5 -25.5q-45 0 -82 10t-71.5 29t-69.5 47t-75 64q-37 33 -67.5 57t-59 39.5t-58.5 23t-66 7.5q-100 0 -156.5 -65t-56.5 -193h-55q0 63 16 120t49 99.5t83.5 67.5t119.5 25q45 0 83 -10.5t73 -30t70 -47t74 -62.5
q38 -35 69.5 -59.5t60.5 -39.5t57.5 -22t61.5 -7q52 0 92 18t67 51.5t40.5 81t13.5 106.5z" />
    <glyph glyph-name="exclamdown" unicode="&#xa1;" horiz-adv-x="406" 
d="M179 696h54v-1055h-54v1055zM253 1048q0 -23 -16 -39.5t-39 -16.5t-39.5 16.5t-16.5 39.5t16.5 39t39.5 16t39 -16t16 -39z" />
    <glyph glyph-name="cent" unicode="&#xa2;" horiz-adv-x="1110" 
d="M576 34q63 0 123.5 17t108.5 52.5t79 91t36 133.5h54q-4 -79 -35 -141.5t-81.5 -106.5t-116.5 -69.5t-140 -29.5v-226h-55v226q-99 5 -176.5 47t-130.5 113t-80.5 167.5t-27.5 211.5v42q0 115 27.5 212t81 168t130.5 112.5t176 46.5v217h55v-217q73 -5 139.5 -31t117 -73
t81.5 -115.5t35 -156.5h-54q-4 81 -34 141.5t-77.5 101t-109 60.5t-128.5 20q-99 0 -172 -38t-120.5 -104t-70.5 -154.5t-23 -189.5v-42q0 -102 23 -190.5t71 -154t121 -103.5t173 -38z" />
    <glyph glyph-name="sterling" unicode="&#xa3;" horiz-adv-x="1150" 
d="M360 667l10 -331q4 -194 -67 -282h757l1 -54h-962v54h120q27 8 46 36t30.5 68t16.5 86.5t4 91.5l-10 331h-211v54h209l-9 318q0 103 26 184.5t74 137.5t115.5 85.5t150.5 29.5q90 0 160 -28.5t117.5 -79.5t72 -122.5t24.5 -156.5h-54q0 88 -25.5 151.5t-69 103.5
t-101.5 59t-124 19q-72 0 -130 -25t-98.5 -73.5t-62 -120t-21.5 -164.5l9 -318h370v-54h-368z" />
    <glyph glyph-name="currency" unicode="&#xa4;" horiz-adv-x="1502" 
d="M1159 156q-81 -83 -187 -129.5t-227 -46.5t-227.5 46t-187.5 128l-176 -180l-40 39l179 182q-68 83 -106 187.5t-38 225.5q0 125 41 233t113 191l-189 193l40 39l188 -192q80 76 182.5 119t220.5 43t220.5 -43.5t182.5 -120.5l191 195l41 -40l-193 -196
q71 -83 111.5 -190t40.5 -231q0 -119 -37.5 -223t-103.5 -186l182 -186l-41 -40zM204 608q0 -119 43 -224t116.5 -183t172 -123t209.5 -45t209 45t171.5 123t116.5 183t43 224t-43 223.5t-116.5 182t-171.5 122.5t-209 45t-209.5 -45t-172 -122.5t-116.5 -182t-43 -223.5z
" />
    <glyph glyph-name="yen" unicode="&#xa5;" horiz-adv-x="1207" 
d="M1079 1456h66l-489 -780h424v-55h-452v-240h452v-55h-452v-326h-54v326h-450v55h450v240h-450v55h421l-487 780h65l452 -718l24 -51h5l24 51z" />
    <glyph glyph-name="brokenbar" unicode="&#xa6;" horiz-adv-x="398" 
d="M172 -270v752h54v-752h-54zM226 698h-54v758h54v-758z" />
    <glyph glyph-name="section" unicode="&#xa7;" horiz-adv-x="1223" 
d="M1094 431q0 -53 -21 -97t-60.5 -78.5t-96 -58t-126.5 -33.5q63 -24 111.5 -52.5t81.5 -66t50 -85t17 -109.5q0 -82 -32 -146t-91 -108.5t-142 -68t-185 -23.5q-90 0 -177 22t-155.5 72t-110.5 132.5t-42 204.5l54 2q0 -109 39 -182t101.5 -116.5t139 -62t151.5 -18.5
q95 0 168.5 21.5t124 60.5t76.5 92t26 116q0 57 -16.5 102.5t-60 83t-119 69t-192.5 62.5q-110 26 -199.5 58t-153 76t-98.5 105t-35 146q0 54 19.5 99.5t56.5 80t90 58t120 33.5q-58 23 -103 51.5t-75.5 65.5t-46.5 83.5t-16 106.5q0 79 32 143t91 109.5t142.5 70
t186.5 24.5q106 0 190.5 -28.5t143 -83t89.5 -135t31 -184.5h-54q0 78 -26 146.5t-77 120t-125.5 81t-171.5 29.5q-103 0 -178 -23t-124 -62t-72.5 -92t-23.5 -113q0 -62 17 -108t61 -83.5t121 -70t197 -66.5q112 -28 200.5 -58t150 -72t94.5 -100.5t33 -142.5zM590 766
q-59 13 -108 30q-79 -3 -137 -23.5t-95.5 -53t-56 -75t-18.5 -91.5q0 -65 19.5 -112t69.5 -84.5t137.5 -70.5t222.5 -71l69 -19q83 1 147.5 19.5t109 50t67.5 73.5t23 89q0 62 -22 109t-74 86t-138.5 73t-215.5 70z" />
    <glyph glyph-name="dieresis" unicode="&#xa8;" horiz-adv-x="906" 
d="M184 1421q0 23 16 39.5t39 16.5t39.5 -16.5t16.5 -39.5t-16.5 -39t-39.5 -16t-39 16t-16 39zM629 1421q0 23 16 39.5t39 16.5t39.5 -16.5t16.5 -39.5t-16.5 -39t-39.5 -16t-39 16t-16 39z" />
    <glyph glyph-name="copyright" unicode="&#xa9;" horiz-adv-x="1666" 
d="M1124 616q0 -79 -21 -138t-60 -98t-94 -58.5t-123 -19.5q-72 0 -131 28t-101 79t-65 122.5t-23 157.5v79q0 86 23 157t65 122t101 79.5t131 28.5q68 0 123 -19.5t94 -58.5t60.5 -98t21.5 -137h-52q0 131 -64 195.5t-183 64.5q-63 0 -112.5 -26t-83.5 -71t-51.5 -106
t-17.5 -130v-80q0 -70 17.5 -130.5t51.5 -105.5t83.5 -70.5t112.5 -25.5q119 0 182.5 62t63.5 197h52zM179 729q0 -97 23.5 -186t66.5 -166.5t102.5 -140.5t132.5 -108t156 -69.5t173 -24.5q89 0 172.5 24.5t156 69.5t132.5 108t103 140.5t66.5 166.5t23.5 186t-23.5 186
t-66.5 166t-103 139.5t-132.5 107t-156 69t-172.5 24.5q-90 0 -173 -24.5t-156 -69t-132.5 -107t-102.5 -139.5t-66.5 -166t-23.5 -186zM123 729q0 106 25.5 202.5t71.5 179.5t111 150.5t144 115t169.5 73.5t188.5 26t188.5 -26t169.5 -73.5t144 -115t111 -150.5
t71.5 -179.5t25.5 -202.5t-25.5 -202.5t-71.5 -180t-111 -151t-144 -116t-169.5 -74.5t-188.5 -26t-188.5 26t-169.5 74.5t-144 116t-111 151t-71.5 180t-25.5 202.5z" />
    <glyph glyph-name="ordfeminine" unicode="&#xaa;" horiz-adv-x="898" 
d="M680 705q-9 27 -14.5 56.5t-7.5 61.5q-17 -26 -42 -50t-55.5 -42t-67 -29t-76.5 -11q-121 0 -185 57t-64 152q0 109 83.5 170.5t235.5 61.5h170v69q0 104 -49.5 162.5t-149.5 58.5q-109 0 -173 -44t-64 -135h-54q0 51 21 93.5t59 73.5t91.5 48.5t119.5 17.5
q56 0 102.5 -17.5t80.5 -52t52.5 -86t18.5 -120.5v-314q0 -49 6.5 -93t19.5 -88h-58zM418 746q39 0 77.5 14t71.5 35.5t57 49t33 54.5v179h-169q-127 0 -196.5 -42t-69.5 -132q0 -35 11 -64t34.5 -50t60.5 -32.5t90 -11.5z" />
    <glyph glyph-name="guillemotleft" unicode="&#xab;" horiz-adv-x="905" 
d="M216 525l294 -379h-70l-295 370v19l295 370h70zM503 525l294 -379h-70l-295 370v19l295 370h70z" />
    <glyph glyph-name="logicalnot" unicode="&#xac;" horiz-adv-x="1101" 
d="M915 396h-54v304h-739v53h793v-357z" />
    <glyph glyph-name="registered" unicode="&#xae;" horiz-adv-x="1674" 
d="M115 729q0 106 25.5 202.5t71.5 179.5t111 150.5t144 115t169.5 73.5t188.5 26t188.5 -26t169.5 -73.5t144 -115t111 -150.5t71.5 -179.5t25.5 -202.5t-25.5 -202.5t-71.5 -180t-111 -151t-144 -116t-169.5 -74.5t-188.5 -26t-188.5 26t-169.5 74.5t-144 116t-111 151
t-71.5 180t-25.5 202.5zM170 729q0 -97 23.5 -186t66.5 -166.5t103 -140.5t132.5 -108t156 -69.5t173.5 -24.5q89 0 172.5 24.5t156 69.5t132.5 108t103 140.5t66.5 166.5t23.5 186t-23.5 186t-66.5 166t-103 139.5t-132.5 107t-156 69t-172.5 24.5q-90 0 -173.5 -24.5
t-156 -69t-132.5 -107t-103 -139.5t-66.5 -166t-23.5 -186zM648 678v-352h-55v830h239q145 0 217 -60.5t72 -179.5q0 -75 -40.5 -126t-112.5 -80q37 -11 62.5 -31.5t41 -47.5t22 -59t6.5 -67v-36q0 -38 4.5 -71t12.5 -56v-16h-59q-5 13 -8 33t-4.5 41t-1.5 40v30v34
q0 47 -10 80t-31.5 54t-56.5 30.5t-86 9.5h-212zM648 734h205q43 0 82 11.5t68 35t46 57.5t17 79q0 47 -11.5 81.5t-39 57.5t-72.5 34t-111 11h-184v-367z" />
    <glyph glyph-name="macron" unicode="&#xaf;" horiz-adv-x="811" 
d="M719 1403h-627v53h627v-53z" />
    <glyph glyph-name="macron" unicode="&#x2c9;" horiz-adv-x="811" 
d="M719 1403h-627v53h627v-53z" />
    <glyph glyph-name="degree" unicode="&#xb0;" horiz-adv-x="783" 
d="M156 1236q0 49 18.5 92.5t50.5 76.5t75 52t92 19q48 0 90 -19t73.5 -52t50 -76.5t18.5 -92.5q0 -50 -18.5 -93t-50 -75t-73.5 -50.5t-90 -18.5q-49 0 -92 18.5t-75 50.5t-50.5 75t-18.5 93zM211 1236q0 -39 14 -72.5t38 -57.5t57 -37.5t72 -13.5q38 0 70.5 13.5t56 37.5
t36.5 57.5t13 72.5q0 40 -13 74t-36.5 58.5t-56 38.5t-70.5 14q-39 0 -72 -14t-57 -38.5t-38 -58.5t-14 -74z" />
    <glyph glyph-name="plusminus" unicode="&#xb1;" horiz-adv-x="1077" 
d="M569 805h419v-54h-419v-462h-54v462h-443v54h443v462h54v-462zM957 -1h-835v54h835v-54z" />
    <glyph glyph-name="twosuperior" unicode="&#xb2;" horiz-adv-x="728" 
d="M651 664h-543v44l290 295q41 40 70 74t47.5 63.5t27 55.5t8.5 51q0 77 -49 122.5t-146 45.5q-53 0 -93.5 -14t-67.5 -39.5t-41 -60t-14 -75.5h-54q0 49 18.5 92t53.5 75.5t85 51.5t113 19q56 0 102 -14.5t78.5 -42.5t50.5 -68t18 -91q0 -37 -15 -73t-40 -72t-57.5 -71.5
t-66.5 -70.5l-251 -248h476v-49z" />
    <glyph glyph-name="threesuperior" unicode="&#xb3;" horiz-adv-x="728" 
d="M270 1090h71q55 0 96.5 12.5t69.5 34.5t42.5 50.5t14.5 61.5q0 34 -12 64.5t-36.5 53t-63 35.5t-90.5 13q-45 0 -83.5 -12t-67 -33.5t-45 -53t-16.5 -70.5h-53q0 49 20.5 89.5t56.5 69t84.5 44t103.5 15.5q58 0 105.5 -14.5t81 -42.5t51.5 -68.5t18 -92.5
q0 -57 -40 -106.5t-115 -72.5q86 -20 130 -70t44 -122q0 -53 -20.5 -94t-56.5 -69.5t-85.5 -43.5t-107.5 -15q-52 0 -103 13.5t-92 42t-66.5 71t-25.5 101.5h54q0 -40 17.5 -73t48.5 -57t74 -37t93 -13q103 0 159.5 46t56.5 127q0 45 -18 76.5t-50 51.5t-76.5 29.5
t-97.5 9.5h-71v49z" />
    <glyph glyph-name="acute" unicode="&#xb4;" horiz-adv-x="511" 
d="M315 1516h66l-195 -266h-60z" />
    <glyph glyph-name="mu" unicode="&#xb5;" 
d="M223 1082v-642q0 -121 25.5 -199.5t68.5 -124.5t98 -64t114 -18q102 0 170.5 28.5t110.5 79.5t62.5 120.5t26.5 151.5v668h54v-577v-23v-482h-41l-11 207q-45 -105 -134 -166t-229 -61q-47 0 -92.5 9.5t-86.5 32t-76 59t-60 90.5v-587h-52v1498h52z" />
    <glyph glyph-name="paragraph" unicode="&#xb6;" horiz-adv-x="946" 
d="M716 0v520h-125q-120 0 -211.5 35t-154 97.5t-94.5 148.5t-32 187q0 100 32 186t94.5 148.5t154 98t211.5 35.5h179v-1456h-54z" />
    <glyph glyph-name="periodcentered" unicode="&#xb7;" horiz-adv-x="472" 
d="M179 706q0 23 16 39.5t39 16.5t39.5 -16.5t16.5 -39.5t-16.5 -39t-39.5 -16t-39 16t-16 39z" />
    <glyph glyph-name="cedilla" unicode="&#xb8;" horiz-adv-x="490" 
d="M207 0l-11 -76q33 -3 65 -13t57 -29.5t40 -50.5t15 -76q0 -43 -20 -78t-56.5 -60t-89.5 -38.5t-119 -13.5l-7 49q40 0 82 8t76.5 25.5t56.5 44t22 63.5q0 33 -12 54.5t-36 35.5t-59.5 21.5t-81.5 12.5l25 121h53z" />
    <glyph glyph-name="onesuperior" unicode="&#xb9;" horiz-adv-x="652" 
d="M433 665h-54v722l-248 -81v53l293 97h9v-791z" />
    <glyph glyph-name="ordmasculine" unicode="&#xba;" horiz-adv-x="914" 
d="M148 1141q0 73 21 134.5t60.5 106t95.5 69.5t127 25t127.5 -25t96 -69.5t60.5 -106t21 -134.5v-117q0 -73 -21 -134.5t-60 -105.5t-95.5 -69t-126.5 -25q-71 0 -128 25t-96.5 69t-60.5 105.5t-21 134.5v117zM202 1024q0 -58 14.5 -109t45.5 -89t78.5 -60t113.5 -22
q63 0 110 22t78 60t46.5 89t15.5 109v117q0 58 -15.5 109t-47 89t-78.5 60.5t-111 22.5q-63 0 -110 -22.5t-78 -60.5t-46.5 -89t-15.5 -109v-117z" />
    <glyph glyph-name="guillemotright" unicode="&#xbb;" horiz-adv-x="897" 
d="M198 940l294 -380v-19l-294 -370h-70l293 379l-293 390h70zM488 940l294 -380v-19l-294 -370h-70l293 379l-293 390h70z" />
    <glyph glyph-name="onequarter" unicode="&#xbc;" horiz-adv-x="1467" 
d="M447 664h-54v722l-248 -81v53l293 97h9v-791zM386 139l-45 31l711 1138l45 -31zM1225 253h147v-49h-147v-204h-53v204h-423l-1 32l417 553h60v-536zM818 253h354v474l-44 -71z" />
    <glyph glyph-name="onehalf" unicode="&#xbd;" horiz-adv-x="1508" 
d="M343 139l-45 31l711 1138l45 -31zM424 664h-54v722l-248 -81v53l293 97h9v-791zM1392 0h-543v44l290 295q41 40 70 74t47.5 63.5t27 55.5t8.5 51q0 77 -49 122.5t-146 45.5q-53 0 -93.5 -14t-67.5 -39.5t-41 -60t-14 -75.5h-54q0 49 18.5 92t53.5 75.5t85 51.5t113 19
q56 0 102 -14.5t78.5 -42.5t50.5 -68t18 -91q0 -37 -15 -73t-40 -72t-57.5 -71.5t-66.5 -70.5l-251 -248h476v-49z" />
    <glyph glyph-name="threequarters" unicode="&#xbe;" horiz-adv-x="1586" 
d="M548 139l-45 31l711 1138l45 -31zM1365 253h147v-49h-147v-204h-53v204h-423l-1 32l417 553h60v-536zM958 253h354v474l-44 -71zM314 1090h71q55 0 96.5 12.5t69.5 34.5t42.5 50.5t14.5 61.5q0 34 -12 64.5t-36.5 53t-63 35.5t-90.5 13q-45 0 -83.5 -12t-67 -33.5
t-45 -53t-16.5 -70.5h-53q0 49 20.5 89.5t56.5 69t84.5 44t103.5 15.5q58 0 105.5 -14.5t81 -42.5t51.5 -68.5t18 -92.5q0 -57 -40 -106.5t-115 -72.5q86 -20 130 -70t44 -122q0 -53 -20.5 -94t-56.5 -69.5t-85.5 -43.5t-107.5 -15q-52 0 -103 13.5t-92 42t-66.5 71
t-25.5 101.5h54q0 -40 17.5 -73t48.5 -57t74 -37t93 -13q103 0 159.5 46t56.5 127q0 45 -18 76.5t-50 51.5t-76.5 29.5t-97.5 9.5h-71v49z" />
    <glyph glyph-name="questiondown" unicode="&#xbf;" horiz-adv-x="912" 
d="M514 695q-1 -56 -4 -93t-15 -68t-37 -61t-69 -70q-46 -44 -87 -85.5t-72 -89.5t-49.5 -107t-18.5 -138q0 -73 19.5 -130.5t57.5 -97.5t94 -61.5t128 -21.5t127.5 22.5t93.5 63.5t58 97t22 124h54q-1 -91 -29 -158.5t-76 -112.5t-112.5 -67t-137.5 -22q-84 0 -149.5 26.5
t-110.5 75t-69 116t-24 148.5q0 76 18.5 138.5t52 117t80 104t102.5 100.5q37 29 57 55.5t29.5 55.5t11 62.5t1.5 76.5h54zM538 1046q0 -23 -16 -39.5t-39 -16.5t-39.5 16.5t-16.5 39.5t16.5 39t39.5 16t39 -16t16 -39z" />
    <glyph glyph-name="AE" unicode="&#xc6;" horiz-adv-x="1816" 
d="M1768 0h-752l-18 425h-627l-256 -425h-65l881 1456h776v-54h-696l26 -616h588v-54h-586l28 -678h701v-54zM403 478h593l-39 920z" />
    <glyph glyph-name="multiply" unicode="&#xd7;" horiz-adv-x="1052" 
d="M98 36l384 393l-357 364l39 39l356 -364l357 364l39 -39l-357 -364l385 -393l-39 -37l-384 391l-384 -391z" />
    <glyph glyph-name="Oslash" unicode="&#xd8;" horiz-adv-x="1364" 
d="M1231 619q0 -143 -38.5 -260.5t-110 -201.5t-172.5 -130.5t-227 -46.5q-100 0 -183.5 29t-150.5 83l-106 -167h-66l130 205q-84 85 -129 209.5t-45 279.5v218q0 142 38.5 260t110 202t173 130.5t226.5 46.5q118 0 214 -41t168 -116l111 176h66l-140 -220
q63 -83 97 -193.5t34 -244.5v-218zM188 619q0 -139 38 -252t111 -191l696 1097q-63 71 -151.5 110t-200.5 39q-117 0 -208.5 -43t-155 -120.5t-96.5 -184.5t-33 -235v-220zM1177 839q0 116 -27 214.5t-80 173.5l-692 -1090q60 -50 136 -76.5t169 -26.5q118 0 210 43
t155 120.5t96 185t33 236.5v220z" />
    <glyph glyph-name="Thorn" unicode="&#xde;" horiz-adv-x="1219" 
d="M254 1456v-313h371q109 0 193 -30.5t141 -85t86.5 -128.5t29.5 -161t-29.5 -161t-86.5 -128t-141 -84.5t-193 -30.5h-371v-334h-54v1456h54zM254 1089v-701h371q105 0 180 31t123 81t70.5 112t22.5 124q0 65 -22.5 128t-70.5 113t-123 81t-180 31h-371z" />
    <glyph glyph-name="germandbls" unicode="&#xdf;" horiz-adv-x="1183" 
d="M218 0h-54v1143q0 191 84.5 291.5t244.5 100.5q59 0 115 -20t99.5 -56t70 -87.5t26.5 -114.5q0 -47 -9 -83t-22 -66t-28.5 -58t-28.5 -59.5t-22 -70.5t-9 -91t28 -92.5t70 -77t90.5 -72.5t90.5 -77.5t70 -93t28 -119.5q0 -76 -34.5 -135t-87.5 -99.5t-118.5 -62
t-126.5 -21.5q-44 0 -90.5 7t-89 19.5t-77.5 28.5t-55 34l25 49q20 -16 51 -31t68.5 -27t78.5 -19.5t81 -7.5q70 0 129 22t102 59.5t66.5 87.5t23.5 105q0 57 -28 101.5t-70 82t-90.5 73t-90.5 74.5t-70 85.5t-28 108.5q0 51 8.5 90.5t21 72t27 61.5t27 59.5t21 65t8.5 79.5
q0 47 -20.5 87.5t-54.5 70.5t-77 47t-89 17q-65 0 -117.5 -18t-89.5 -58.5t-57.5 -105t-20.5 -156.5v-1143z" />
    <glyph glyph-name="ae" unicode="&#xe6;" horiz-adv-x="1735" 
d="M1268 -20q-147 0 -247.5 67.5t-152.5 182.5v-12h1q-18 -40 -53.5 -82.5t-88 -77t-122.5 -56.5t-157 -22q-86 0 -152 21.5t-111 61.5t-68.5 96t-23.5 125q0 77 27.5 140.5t81.5 109.5t134.5 71t186.5 25h290v90q0 156 -72 242t-220 86q-83 0 -147.5 -21t-109 -58
t-67.5 -88t-23 -110l-53 7q0 70 28 129.5t80 102.5t126 67.5t166 24.5q68 0 125.5 -18t101 -54t72 -90t40.5 -126q27 66 66.5 119.5t90 91t110.5 57.5t126 20q94 0 169 -30.5t127.5 -87.5t80 -139t27.5 -185v-83h-787v-13v-64q0 -97 23 -182t71.5 -148t123.5 -99.5
t180 -36.5q107 0 190.5 35.5t141.5 94.5l30 -42q-27 -27 -59.5 -52.5t-76 -45.5t-99 -32t-127.5 -12zM447 32q71 0 134 20t111.5 49.5t80 63t40.5 60.5v350h-288q-97 0 -168 -24t-117.5 -64.5t-69 -94t-22.5 -112.5q0 -116 76.5 -182t222.5 -66zM1253 1048q-82 0 -148 -32
t-115 -88t-78.5 -132t-38.5 -164h730v32q0 81 -22 151t-66 122t-109.5 81.5t-152.5 29.5z" />
    <glyph glyph-name="eth" unicode="&#xf0;" horiz-adv-x="1183" 
d="M802 1308q121 -125 180 -294.5t59 -398.5v-80q0 -123 -30.5 -225.5t-85.5 -175.5t-130.5 -113.5t-165.5 -40.5q-101 0 -184.5 37.5t-144 103t-94 154t-33.5 190.5q0 116 29 207t84.5 153.5t134.5 95t180 32.5q56 0 111 -11.5t104 -33t90 -54t71 -74.5q-20 168 -78 289
t-147 211l-235 -131l-28 48l220 123q-78 68 -172 118t-199 89l20 50q123 -45 223 -101t179 -128l202 113l29 -48zM987 617q0 14 -0.5 27.5t-0.5 27.5q-18 41 -50 81t-80 71.5t-111.5 51t-143.5 19.5q-98 0 -168.5 -33.5t-116 -91.5t-67 -136.5t-21.5 -168.5q0 -80 26.5 -157
t78 -137t127 -96.5t173.5 -36.5q81 0 146.5 37t111.5 103t71 157.5t25 199.5v82z" />
    <glyph glyph-name="divide" unicode="&#xf7;" horiz-adv-x="1159" 
d="M1071 686h-998v52h998v-52zM529 1079q0 23 16 39.5t39 16.5t39.5 -16.5t16.5 -39.5t-16.5 -39t-39.5 -16t-39 16t-16 39zM529 301q0 23 16 39.5t39 16.5t39.5 -16.5t16.5 -39.5t-16.5 -39t-39.5 -16t-39 16t-16 39z" />
    <glyph glyph-name="oslash" unicode="&#xf8;" 
d="M87 562q0 119 34.5 218t97 170.5t149.5 111.5t192 40q63 0 119 -14.5t105 -40.5l84 172h63l-99 -203q95 -70 148.5 -187t53.5 -267v-42q0 -119 -34 -218t-96.5 -170.5t-149.5 -111.5t-192 -40q-59 0 -111 12.5t-99 35.5l-84 -173h-63l98 201q-51 34 -91 82t-67.5 107
t-42.5 128.5t-15 146.5v42zM141 520q0 -64 12 -124t36 -113.5t58.5 -98t79.5 -77.5l432 888q-43 26 -92.5 39.5t-106.5 13.5q-99 0 -177 -40.5t-131.5 -108t-82 -155t-28.5 -182.5v-42zM980 562q0 60 -11.5 117.5t-33.5 109t-54.5 96t-74.5 78.5l-430 -886q83 -43 186 -43
q99 0 176.5 39.5t131 106.5t82 155t28.5 185v42z" />
    <glyph glyph-name="thorn" unicode="&#xfe;" 
d="M224 889q26 48 62 87t82 67t101.5 43.5t121.5 15.5q96 0 172 -38t128.5 -109t80 -173t27.5 -230v-21q0 -124 -27.5 -225.5t-79.5 -174t-127.5 -112t-171.5 -39.5q-66 0 -122.5 14t-102.5 39t-82.5 59.5t-61.5 75.5v-584h-54v1952h54v-647zM944 552q0 108 -21.5 199
t-65 157t-110 103t-155.5 37q-86 0 -148.5 -25t-106 -64.5t-71 -88t-42.5 -95.5v-506q19 -51 51.5 -94t78.5 -74.5t106 -49t134 -17.5q88 0 154 37t109.5 103.5t65 157.5t21.5 199v21z" />
    <glyph glyph-name="Hbar" unicode="&#x126;" horiz-adv-x="1389" 
d="M1197 1081h155v-53h-155v-1028h-54v722h-930v-722h-54v1028h-139v53h139v375h54v-375h930v375h54v-375zM213 776h930v252h-930v-252z" />
    <glyph glyph-name="dotlessi" unicode="&#x131;" horiz-adv-x="406" 
d="M235 0h-54v1082h54v-1082z" />
    <glyph glyph-name="kgreenlandic" unicode="&#x138;" horiz-adv-x="1084" 
d="M394 529h-168v-529h-55v1082h55v-500h178l489 500h69l-508 -529l571 -553h-71z" />
    <glyph glyph-name="Lslash" unicode="&#x141;" horiz-adv-x="1061" 
d="M247 791l351 111v-57l-351 -111v-680h747v-54h-802v716l-184 -58v57l184 58v683h55v-665z" />
    <glyph glyph-name="lslash" unicode="&#x142;" horiz-adv-x="505" 
d="M286 850l201 80v-59l-201 -80v-791h-54v769l-215 -85v59l215 85v708h54v-686z" />
    <glyph glyph-name="Eng" unicode="&#x14a;" horiz-adv-x="1450" 
d="M1250 1456v-1545q0 -170 -75.5 -259t-209.5 -89q-31 0 -57 5t-55 15l13 52q16 -6 43 -12t56 -6q111 0 171 76t60 218v89l-942 1364v-1364h-54v1456h54l942 -1363v1363h54z" />
    <glyph glyph-name="eng" unicode="&#x14b;" 
d="M218 1082l6 -224q48 113 141 178.5t235 65.5q87 0 153 -26.5t111 -82.5t67.5 -144.5t22.5 -211.5v-726q0 -170 -75.5 -259t-209.5 -89q-37 0 -68 5t-65 15l13 52q18 -6 52 -12.5t68 -6.5q111 0 171 76.5t60 218.5v728q0 121 -23 200t-63.5 125.5t-95 65t-117.5 18.5
q-93 0 -160 -30.5t-111.5 -81.5t-70 -117.5t-35.5 -138.5v-680h-54v1082h48z" />
    <glyph glyph-name="OE" unicode="&#x152;" horiz-adv-x="1873" 
d="M1801 0h-840q-76 -8 -159 -14.5t-171 -6.5q-115 0 -210.5 43.5t-164 122.5t-106.5 189t-38 242v304q0 132 37.5 242t106 188.5t163.5 122t210 43.5q88 0 172 -6t160 -14h840v-54h-832v-626h730v-54h-730v-668h832v-54zM631 33q71 0 145 2.5t139 10.5v1363
q-66 8 -138 10.5t-148 2.5q-106 0 -191.5 -39t-146 -110t-93 -170.5t-32.5 -220.5v-306q0 -119 33 -218.5t93.5 -171.5t146.5 -112.5t192 -40.5z" />
    <glyph glyph-name="oe" unicode="&#x153;" horiz-adv-x="1924" 
d="M92 562q0 119 34.5 218t97 170.5t149.5 111.5t192 40q84 0 156.5 -25t130 -71.5t99 -112t64.5 -146.5q23 81 64.5 146.5t97 112t123 71.5t141.5 25q90 0 166 -30.5t131 -87.5t86 -139t31 -185v-83h-811v-13v-64q0 -97 30.5 -182t84.5 -148t127 -99.5t158 -36.5
q63 0 114 8.5t92.5 25.5t75 41t60.5 56l29 -42q-62 -69 -152 -106t-219 -37q-72 0 -140 25t-125 71t-100 111t-66 144q-23 -80 -64 -145t-98.5 -110.5t-129 -70.5t-154.5 -25q-106 0 -193.5 40t-150 111.5t-97 170.5t-34.5 218v42zM146 520q0 -97 28.5 -185t82.5 -155
t132 -106.5t178 -39.5q99 0 176.5 39.5t131 106.5t82 155t28.5 185v42q0 95 -28.5 182.5t-82.5 155t-132 108t-177 40.5t-177 -40.5t-131.5 -108t-82 -155t-28.5 -182.5v-42zM1441 1048q-82 0 -150.5 -32t-119.5 -88t-83 -132.5t-41 -164.5h754v33q0 81 -25.5 151.5t-73 122
t-114 81t-147.5 29.5z" />
    <glyph glyph-name="longs" unicode="&#x17f;" horiz-adv-x="422" 
d="M174 0v1236q0 156 74.5 238.5t207.5 82.5q32 0 64.5 -3.5t63.5 -13.5l-8 -52q-28 8 -53 11.5t-66 3.5q-107 0 -168 -69.5t-61 -197.5v-1236h-54z" />
    <glyph glyph-name="florin" unicode="&#x192;" horiz-adv-x="644" 
d="M593 1027h-286v-1116q0 -170 -75 -259t-210 -89q-31 0 -57 5t-55 15l13 52q16 -6 43.5 -12t55.5 -6q112 0 171.5 76t59.5 218v1116h-188v55h188v154q0 78 19.5 137.5t56 100.5t89 62t118.5 21q31 0 63.5 -3.5t64.5 -13.5l-8 -52q-14 4 -27 6.5t-26.5 4.5t-29.5 3t-36 1
q-107 0 -168.5 -69.5t-61.5 -197.5v-154h286v-55z" />
    <glyph glyph-name="Ohorn" unicode="&#x1a0;" horiz-adv-x="1451" 
d="M1262 619q0 -143 -38.5 -260.5t-110 -201.5t-172.5 -130.5t-227 -46.5q-125 0 -226.5 46.5t-173.5 130.5t-111 201.5t-39 260.5v218q0 142 38.5 260t110 202t173 130.5t226.5 46.5q148 0 260.5 -63t184.5 -175q75 1 123.5 22t76 59t38 94t10.5 128h54q0 -82 -14.5 -145.5
t-46.5 -108.5t-84 -70.5t-127 -31.5q36 -73 55.5 -160.5t19.5 -187.5v-218zM1208 839q0 128 -33.5 235t-97 184.5t-155.5 120.5t-210 43q-117 0 -208.5 -43t-155 -120.5t-96.5 -184.5t-33 -235v-220q0 -129 33.5 -236.5t97 -185t155.5 -120.5t209 -43q118 0 210 43
t155 120.5t96 185t33 236.5v220z" />
    <glyph glyph-name="ohorn" unicode="&#x1a1;" horiz-adv-x="1122" 
d="M87 562q0 119 34.5 218t97 170.5t149.5 111.5t192 40q106 0 192 -39t149 -110q64 2 103.5 19t61.5 48t29.5 75t7.5 101h55q0 -66 -11 -117.5t-36.5 -89t-67.5 -59.5t-103 -29q45 -68 69.5 -153.5t24.5 -185.5v-42q0 -119 -34 -218t-96.5 -170.5t-149.5 -111.5t-192 -40
q-106 0 -193.5 40t-150 111.5t-97 170.5t-34.5 218v42zM141 520q0 -97 28.5 -185t82.5 -155t132 -106.5t178 -39.5q99 0 176.5 39.5t131 106.5t82 155t28.5 185v42q0 95 -28.5 182.5t-82.5 155t-132 108t-177 40.5t-177 -40.5t-131.5 -108t-82 -155t-28.5 -182.5v-42z" />
    <glyph glyph-name="Uhorn" unicode="&#x1af;" horiz-adv-x="1365" 
d="M1180 1456v-208q70 3 115.5 24.5t72 60t36.5 93.5t10 125h54q0 -84 -15 -149t-49 -110t-89 -70t-135 -28v-725q0 -123 -37.5 -214.5t-104.5 -152.5t-158 -91.5t-197 -30.5q-107 0 -198 30.5t-157.5 91.5t-104.5 152.5t-38 214.5v987h54v-987q0 -105 34 -186.5
t93.5 -136.5t140.5 -83.5t176 -28.5q94 0 175.5 28.5t140.5 83.5t93 136.5t34 186.5v987h54z" />
    <glyph glyph-name="uhorn" unicode="&#x1b0;" horiz-adv-x="1133" 
d="M1187 1190q0 -68 -12 -121t-39.5 -90.5t-72.5 -59t-111 -26.5v-468v-19v-406h-55v175q-48 -90 -140 -142.5t-233 -52.5q-80 0 -145.5 22.5t-112 72t-72.5 128.5t-26 192v687h54v-689q0 -99 22.5 -167.5t62.5 -111t95 -61.5t120 -19q90 0 156 23t111 62t71 91t37 111v761
h55v-135q57 4 92 22.5t54.5 49t26.5 74t7 97.5h55z" />
    <glyph glyph-name="uni0237" unicode="&#x237;" horiz-adv-x="422" 
d="M240 1082v-1171q0 -170 -75 -259t-210 -89q-31 0 -57 5t-55 15l13 52q16 -6 43.5 -12t55.5 -6q112 0 171.5 76t59.5 218v1171h54z" />
    <glyph glyph-name="schwa" unicode="&#x259;" horiz-adv-x="1032" 
d="M498 1102q90 0 172 -39t145 -108.5t100 -165t37 -208.5v-64q0 -119 -35.5 -217.5t-96.5 -170t-143 -111t-176 -39.5q-90 0 -166 30.5t-131 87.5t-86 139t-31 185v83h810q0 3 0.5 6t0.5 7v64q0 97 -30.5 182t-84.5 148.5t-127 100t-158 36.5q-63 0 -114 -9t-92.5 -25.5
t-75 -41.5t-60.5 -56l-29 42q62 69 152 106.5t219 37.5zM501 33q82 0 150 32t119 88t83 132t41 165h-753v-33q0 -81 25.5 -151.5t73 -122t114 -81t147.5 -29.5z" />
    <glyph glyph-name="circumflex" unicode="&#x2c6;" horiz-adv-x="796" 
d="M656 1274v-10h-68l-187 196l-185 -196h-64v14l230 239h40z" />
    <glyph glyph-name="caron" unicode="&#x2c7;" horiz-adv-x="764" 
d="M386 1289l194 217h53v-13l-218 -250h-59l-220 252v11h57z" />
    <glyph glyph-name="breve" unicode="&#x2d8;" horiz-adv-x="857" 
d="M704 1486q0 -55 -19 -100.5t-55 -78.5t-87.5 -51t-116.5 -18t-117 18t-88 51t-55 78.5t-19 100.5h54q0 -39 12 -74t38.5 -61.5t69.5 -41.5t105 -15q60 0 102.5 15.5t69.5 42t39.5 61t12.5 73.5h54z" />
    <glyph glyph-name="dotaccent" unicode="&#x2d9;" horiz-adv-x="422" 
d="M156 1397q0 23 16 39.5t39 16.5t39.5 -16.5t16.5 -39.5t-16.5 -39t-39.5 -16t-39 16t-16 39z" />
    <glyph glyph-name="ring" unicode="&#x2da;" horiz-adv-x="586" 
d="M114 1382q0 37 13 68.5t36.5 55t54.5 37t67 13.5t67 -13.5t54 -37t36.5 -55t13.5 -68.5t-13.5 -68t-36.5 -53.5t-54 -35.5t-67 -13t-67 13t-54.5 35.5t-36.5 53.5t-13 68zM168 1382q0 -52 33 -84t84 -32t84 32t33 84q0 54 -33 87t-84 33t-84 -33t-33 -87z" />
    <glyph glyph-name="ogonek" unicode="&#x2db;" horiz-adv-x="471" 
d="M313 0q-36 -28 -69.5 -56.5t-60 -58.5t-42.5 -62.5t-16 -68.5q0 -18 4.5 -35.5t15 -30.5t28.5 -21t45 -8q40 0 66 12.5t44 25.5l16 -48q-19 -15 -49.5 -29.5t-76.5 -14.5q-67 0 -107 36.5t-40 112.5q0 35 17.5 71t45.5 70t64 66t72 59z" />
    <glyph glyph-name="tilde" unicode="&#x2dc;" horiz-adv-x="817" 
d="M729 1472q0 -42 -13.5 -76t-37.5 -58.5t-56 -38t-69 -13.5q-36 0 -63 9.5t-49 23t-41 30t-39 30t-43 23t-52 9.5q-25 0 -47 -7.5t-38.5 -23.5t-26 -39.5t-9.5 -54.5h-55q0 41 13.5 74t37.5 56.5t56 36t69 12.5q35 0 62 -9t49.5 -23t42 -30t40 -30t43 -23t50.5 -9
q25 0 47 8.5t38.5 25.5t26 41t9.5 56h55z" />
    <glyph glyph-name="hungarumlaut" unicode="&#x2dd;" horiz-adv-x="783" 
d="M662 1536h80l-288 -304h-73zM382 1536h76l-243 -304h-69z" />
    <glyph glyph-name="uni02F3" unicode="&#x2f3;" horiz-adv-x="642" 
d="M186 -219q0 24 11 46t29.5 38.5t43.5 26t53 9.5q27 0 51.5 -9.5t42.5 -26t28.5 -38.5t10.5 -46t-10.5 -45.5t-28.5 -37t-42.5 -24.5t-51.5 -9q-28 0 -53 9t-43.5 24.5t-29.5 37t-11 45.5zM244 -219q0 -26 23.5 -43t55.5 -17t54 17t22 43q0 27 -22 44.5t-54 17.5
t-55.5 -17.5t-23.5 -44.5z" />
    <glyph glyph-name="gravecomb" unicode="&#x300;" horiz-adv-x="0" 
d="M-494 1244h-66l-162 291h75z" />
    <glyph glyph-name="acutecomb" unicode="&#x301;" horiz-adv-x="0" 
d="M-415 1536h67l-159 -291h-61z" />
    <glyph glyph-name="tildecomb" unicode="&#x303;" horiz-adv-x="0" 
d="M-183 1472q0 -42 -13.5 -76t-37.5 -58.5t-56 -38t-69 -13.5q-36 0 -63 9.5t-49 23t-41 30t-39 30t-43 23t-52 9.5q-25 0 -47 -7.5t-38.5 -23.5t-26 -39.5t-9.5 -54.5h-55q0 41 13.5 74t37.5 56.5t56 36t69 12.5q35 0 62 -9t49.5 -23t42 -30t40 -30t43 -23t50.5 -9
q25 0 47 8.5t38.5 25.5t26 41t9.5 56h55z" />
    <glyph glyph-name="hook" unicode="&#x309;" horiz-adv-x="0" 
d="M-598 1227v99q99 8 144 33t45 81q0 31 -22 52.5t-56 34t-76 18t-82 5.5l7 49q62 0 114.5 -11t90.5 -31t59 -50t21 -67q0 -40 -15.5 -69t-42 -48t-62.5 -29t-77 -13v-54h-48z" />
    <glyph glyph-name="uni030F" unicode="&#x30f;" horiz-adv-x="0" 
d="M-598 1252h-73l-298 266h80zM-373 1252h-69l-253 266h76z" />
    <glyph glyph-name="dotbelow" unicode="&#x323;" horiz-adv-x="0" 
d="M-632 -218q0 23 16 39.5t39 16.5t39.5 -16.5t16.5 -39.5t-16.5 -39t-39.5 -16t-39 16t-16 39z" />
    <glyph glyph-name="tonos" unicode="&#x384;" horiz-adv-x="514" 
d="M309 1578h63l-103 -273h-53z" />
    <glyph glyph-name="dieresistonos" unicode="&#x385;" horiz-adv-x="928" 
d="M466 1657h79l-43 -240h-59zM194 1421q0 23 16 39.5t39 16.5t39.5 -16.5t16.5 -39.5t-16.5 -39t-39.5 -16t-39 16t-16 39zM639 1421q0 23 16 39.5t39 16.5t39.5 -16.5t16.5 -39.5t-16.5 -39t-39.5 -16t-39 16t-16 39z" />
    <glyph glyph-name="anoteleia" unicode="&#x387;" horiz-adv-x="472" 
d="M179 706q0 23 16 39.5t39 16.5t39.5 -16.5t16.5 -39.5t-16.5 -39t-39.5 -16t-39 16t-16 39z" />
    <glyph glyph-name="Gamma" unicode="&#x393;" horiz-adv-x="1122" 
d="M1055 1402h-808v-1402h-54v1456h862v-54z" />
    <glyph glyph-name="Delta" unicode="&#x394;" horiz-adv-x="1411" 
d="M674 1456h65l617 -1456h-1298zM140 54h1133l-537 1271l-30 80l-30 -80z" />
    <glyph glyph-name="Delta" unicode="&#x2206;" horiz-adv-x="1411" 
d="M674 1456h65l617 -1456h-1298zM140 54h1133l-537 1271l-30 80l-30 -80z" />
    <glyph glyph-name="Theta" unicode="&#x398;" horiz-adv-x="1364" 
d="M971 691h-591v53h591v-53zM1231 619q0 -143 -38.5 -260.5t-110 -201.5t-172.5 -130.5t-227 -46.5q-125 0 -226.5 46.5t-173.5 130.5t-111 201.5t-39 260.5v218q0 142 38.5 260t110 202t173 130.5t226.5 46.5q126 0 227.5 -46.5t173 -130.5t110.5 -202t39 -260v-218z
M1177 839q0 128 -33.5 235t-97 184.5t-155.5 120.5t-210 43q-117 0 -208.5 -43t-155 -120.5t-96.5 -184.5t-33 -235v-220q0 -129 33.5 -236.5t97 -185t155.5 -120.5t209 -43q118 0 210 43t155 120.5t96 185t33 236.5v220z" />
    <glyph glyph-name="Lambda" unicode="&#x39b;" horiz-adv-x="1313" 
d="M653 1386l-507 -1386h-59l534 1456h65l535 -1456h-59z" />
    <glyph glyph-name="Xi" unicode="&#x39e;" 
d="M112 54h905v-54h-905v54zM220 741h681v-54h-681v54zM133 1456h845v-53h-845v53z" />
    <glyph glyph-name="Pi" unicode="&#x3a0;" horiz-adv-x="1438" 
d="M1238 0h-54v1402h-930v-1402h-54v1456h1038v-1456z" />
    <glyph glyph-name="Sigma" unicode="&#x3a3;" 
d="M656 768l-523 -714h916v-54h-992v44l547 743l-547 625v44h37l2 -3v3h893v-53h-849l516 -588v-47z" />
    <glyph glyph-name="Phi" unicode="&#x3a6;" horiz-adv-x="1462" 
d="M757 1266q141 0 253 -42t190.5 -113.5t120 -167t41.5 -204.5q0 -110 -41.5 -206t-120 -168t-190.5 -114t-253 -42v-209h-55v209q-141 1 -252.5 42.5t-189 113t-119 167.5t-41.5 205q0 108 41.5 204t119 168t189 114t252.5 43v190h55v-190zM1307 739q0 100 -38 186.5
t-109 150t-173 100t-230 36.5v-949q128 0 230 36.5t173 100.5t109 151t38 188zM155 737q0 -101 37.5 -187.5t108 -150t172 -99.5t229.5 -37v949q-128 -1 -229.5 -38t-172 -101t-108 -150.5t-37.5 -185.5z" />
    <glyph glyph-name="Psi" unicode="&#x3a8;" horiz-adv-x="1428" 
d="M741 471q105 2 192.5 36.5t151.5 96t99.5 148t35.5 194.5v510h54v-510q0 -125 -39.5 -223t-110.5 -165.5t-169 -103.5t-214 -38v-416h-55v416q-116 3 -213 39.5t-167.5 104t-110 164.5t-39.5 222v510h55v-510q0 -107 35.5 -193.5t98.5 -148t150 -96t191 -37.5v985h55
v-985z" />
    <glyph glyph-name="Omega" unicode="&#x3a9;" horiz-adv-x="1321" 
d="M761 78q62 31 126 81t115.5 127t84.5 186.5t33 259.5v119q0 120 -32.5 224t-93.5 181.5t-147 121.5t-192 44q-107 0 -192.5 -44t-145.5 -121.5t-92.5 -181.5t-32.5 -224v-119q0 -151 34 -260.5t87 -186.5t117.5 -126.5t126.5 -80.5v-78h-435v54h366q-65 37 -127.5 94.5
t-112 140t-80 192t-30.5 251.5v117q0 142 37.5 257.5t105.5 197.5t163 127t211 45q115 0 210.5 -45t164 -127t106.5 -197.5t38 -257.5v-117q0 -142 -30.5 -251.5t-79.5 -191.5t-111 -139.5t-126 -95.5h368v-54h-434v78z" />
    <glyph glyph-name="Omega" unicode="&#x2126;" horiz-adv-x="1321" 
d="M761 78q62 31 126 81t115.5 127t84.5 186.5t33 259.5v119q0 120 -32.5 224t-93.5 181.5t-147 121.5t-192 44q-107 0 -192.5 -44t-145.5 -121.5t-92.5 -181.5t-32.5 -224v-119q0 -151 34 -260.5t87 -186.5t117.5 -126.5t126.5 -80.5v-78h-435v54h366q-65 37 -127.5 94.5
t-112 140t-80 192t-30.5 251.5v117q0 142 37.5 257.5t105.5 197.5t163 127t211 45q115 0 210.5 -45t164 -127t106.5 -197.5t38 -257.5v-117q0 -142 -30.5 -251.5t-79.5 -191.5t-111 -139.5t-126 -95.5h368v-54h-434v78z" />
    <glyph glyph-name="alpha" unicode="&#x3b1;" horiz-adv-x="1149" 
d="M950 1082v-827q0 -65 9 -107.5t25.5 -68.5t39 -36.5t49.5 -10.5q19 0 33.5 3t31.5 7l11 -49q-18 -9 -36.5 -11.5t-36.5 -2.5q-86 0 -130 55t-49 183q-24 -51 -59.5 -95t-81.5 -75.5t-103 -49.5t-125 -18q-96 0 -171.5 38.5t-127.5 109t-79.5 170.5t-27.5 224v21
q0 128 27.5 231.5t80 176.5t128.5 112.5t172 39.5q68 0 124 -19.5t101.5 -54.5t80.5 -83.5t60 -107.5v17l6 228h48zM178 521q0 -108 21.5 -198t64.5 -154.5t108.5 -100t154.5 -35.5q78 0 139.5 24t106.5 66t75.5 98.5t47.5 121.5v351q-15 58 -43 120.5t-72 114.5
t-106.5 85.5t-145.5 33.5q-89 0 -155 -38.5t-109.5 -106.5t-65 -160.5t-21.5 -200.5v-21z" />
    <glyph glyph-name="beta" unicode="&#x3b2;" horiz-adv-x="1213" 
d="M583 1476q89 0 161.5 -28t123.5 -77.5t78.5 -118t27.5 -150.5q0 -111 -54.5 -199.5t-159.5 -132.5q81 -17 140.5 -53t99.5 -86.5t59.5 -113t19.5 -132.5q0 -97 -32.5 -172.5t-91 -127.5t-140.5 -79t-181 -27q-50 0 -104.5 10t-106.5 31t-97 53t-77 75v-561h-54v697
q-1 8 -1.5 16.5t-0.5 17.5l2 1v734q0 93 31 170.5t84 134t123.5 87.5t149.5 31zM579 791q91 0 155.5 22t105.5 63t60.5 99.5t19.5 131.5q0 58 -20 115t-61 101t-104.5 71.5t-151.5 27.5q-70 0 -131 -27.5t-106 -76.5t-71 -116.5t-26 -148.5v-809q20 -47 58 -86t89 -67
t111.5 -43t126.5 -15q96 0 169 24t122 69t74 109.5t25 145.5q0 82 -26.5 148t-77.5 111.5t-126.5 70t-174.5 24.5h-143v56h103z" />
    <glyph glyph-name="gamma" unicode="&#x3b3;" horiz-adv-x="978" 
d="M877 1082h58l-419 -1077v-420h-54v417l-419 1080h58l334 -853l54 -155l55 155z" />
    <glyph glyph-name="delta" unicode="&#x3b4;" 
d="M215 1309q0 53 26.5 99.5t73.5 81t111.5 54t141.5 19.5q79 0 157 -16.5t150 -60.5l-18 -49q-34 16 -64.5 29.5t-63 23t-71 14.5t-89.5 5q-60 0 -114.5 -12.5t-96 -38t-65.5 -63t-24 -86.5q0 -44 16 -81.5t54 -68t99.5 -55.5t153.5 -44q110 -24 192.5 -77t138 -123
t83.5 -152.5t28 -165.5v-42q0 -114 -34 -209.5t-96.5 -164.5t-149.5 -107.5t-192 -38.5q-106 0 -193.5 38.5t-150 107.5t-97 164.5t-34.5 209.5v42q0 73 15.5 136t42.5 115.5t63 93.5t77.5 70.5t85.5 47.5t87 24v11q-70 27 -116.5 59t-74.5 66.5t-40 71t-12 72.5zM141 500
q0 -93 28.5 -177.5t82.5 -148.5t132 -102t178 -38q99 0 176.5 38t131 102t82 148.5t28.5 177.5v42q0 94 -34.5 172.5t-91 137t-127.5 96t-144 49.5q-105 0 -187 -38.5t-139 -102t-86.5 -145.5t-29.5 -169v-42z" />
    <glyph glyph-name="epsilon" unicode="&#x3b5;" horiz-adv-x="1122" 
d="M116 290q0 103 62 170t187 94q-56 16 -99 41.5t-72 57.5t-44 70t-15 79q0 72 29.5 128t83.5 94.5t130.5 58t171.5 19.5q87 0 165 -21.5t136.5 -61t93 -95.5t34.5 -125h-54q0 57 -29.5 103t-80 78.5t-119 50t-146.5 17.5q-94 0 -162 -18.5t-111.5 -51.5t-64.5 -77.5
t-21 -95.5t20.5 -93t64 -71t112.5 -45t165 -16h165v-55h-165q-185 0 -284 -56t-99 -182q0 -58 25 -104.5t73.5 -79.5t119.5 -50.5t162 -17.5q88 0 160.5 20t124 56t79.5 84.5t28 105.5h55q0 -82 -39 -142.5t-102.5 -100t-143.5 -59t-162 -19.5q-95 0 -174.5 21t-137 61
t-90 97.5t-32.5 130.5z" />
    <glyph glyph-name="zeta" unicode="&#x3b6;" horiz-adv-x="954" 
d="M887 1456v-37l-442 -579q-66 -85 -108.5 -156t-67 -132t-34 -113t-9.5 -98q0 -53 20.5 -93t63 -72t108 -57.5t154.5 -47.5l89 -24q54 -14 94 -30t65.5 -38t38 -50t12.5 -65q0 -48 -15.5 -90t-39 -76t-50.5 -57t-50 -33l-37 31q20 9 44 30.5t45 51.5t35.5 66.5t14.5 77.5
q0 28 -10.5 48t-31.5 34.5t-51.5 25.5t-70.5 21l-90 24q-102 26 -176 56t-121.5 68.5t-70.5 87t-23 111.5q0 51 10.5 108t36.5 122t71.5 141.5t116.5 166.5l398 524h-768v53h849z" />
    <glyph glyph-name="eta" unicode="&#x3b7;" 
d="M226 857q47 113 139 179t235 66q87 0 153 -24t111 -75.5t67.5 -132t22.5 -193.5v-1093h-54v1095q0 109 -23 180.5t-63.5 113.5t-95 58.5t-117.5 16.5q-95 0 -162.5 -32t-111.5 -85t-68 -122t-33 -142v-667h-54v1082h54v-225z" />
    <glyph glyph-name="theta" unicode="&#x3b8;" horiz-adv-x="1181" 
d="M1026 594q0 -143 -28 -256.5t-83 -193t-136 -122t-187 -42.5q-105 0 -186 42.5t-137 122t-85 193t-29 256.5v268q0 142 28.5 256t84 194t136.5 122.5t186 42.5t186.5 -42.5t137 -122.5t84 -194t28.5 -256v-268zM209 749h763v113q0 125 -23.5 228.5t-71 177.5t-119 114.5
t-168.5 40.5q-96 0 -168 -40.5t-119 -114.5t-70.5 -177.5t-23.5 -228.5v-113zM972 695h-763v-99q0 -123 23.5 -226t71.5 -178t120 -116.5t168 -41.5q97 0 168.5 41.5t118.5 116.5t70 178t23 226v99z" />
    <glyph glyph-name="iota" unicode="&#x3b9;" horiz-adv-x="565" 
d="M225 1082v-811q0 -71 13 -115t35.5 -68.5t52 -33t62.5 -8.5q31 0 55 2.5t52 6.5l9 -51q-11 -4 -26 -6t-31 -3.5t-31 -2t-25 -0.5q-52 0 -93 13t-69.5 45t-43.5 86t-15 135v811h55z" />
    <glyph glyph-name="lambda" unicode="&#x3bb;" 
d="M244 1518q64 0 106 -27.5t69.5 -67t44 -84.5t29.5 -79l374 -1023q16 -45 32 -80t35 -59t42 -37t54 -13q7 0 23.5 2t24.5 5l9 -51q-9 -5 -27 -7.5t-30 -2.5q-54 0 -89.5 21.5t-59 54t-38.5 70.5t-27 71l-277 767l-9 23l-409 -1001h-59l441 1075l-65 177q-17 45 -33 84
t-38 67.5t-51 44.5t-71 16q-7 0 -23.5 -2t-24.5 -4l-9 50q9 5 27 7.5t29 2.5z" />
    <glyph glyph-name="xi" unicode="&#x3be;" horiz-adv-x="1006" 
d="M923 1377q-63 23 -131.5 34.5t-139.5 11.5q-99 0 -170 -21t-117.5 -57.5t-68.5 -87t-22 -109.5q0 -60 22.5 -107.5t71.5 -80.5t125.5 -51t183.5 -18h122v-56h-122q-97 0 -185 -21.5t-154.5 -68.5t-106 -121t-39.5 -179q0 -91 30.5 -155t87 -110t136.5 -78t179 -59l78 -21
q56 -15 95.5 -31t64 -36t36 -45.5t11.5 -59.5q0 -44 -17.5 -80.5t-41.5 -64.5t-50 -47t-43 -28l-33 33q14 8 36.5 24.5t43.5 40.5t36.5 55t15.5 68q0 41 -36.5 67.5t-124.5 50.5l-78 21q-101 27 -188.5 62t-152.5 88t-102.5 127.5t-37.5 181.5q0 82 24.5 149.5t69.5 119
t108.5 87.5t140.5 56q-64 18 -113 46.5t-82 65t-49.5 80t-16.5 91.5q0 82 31 144.5t87.5 104t137 62.5t179.5 21q72 0 142.5 -12.5t132.5 -36.5z" />
    <glyph glyph-name="pi" unicode="&#x3c0;" horiz-adv-x="1219" 
d="M1130 1027h-215v-756q0 -71 13 -115t35.5 -68.5t52 -33t62.5 -8.5q31 0 55 2.5t52 6.5l9 -51q-11 -4 -26 -6t-31 -3.5t-31 -2t-25 -0.5q-52 0 -93 13t-69.5 45t-43.5 86t-15 135v756h-549v-1027h-54v1027h-195v55h1068v-55z" />
    <glyph glyph-name="rho" unicode="&#x3c1;" 
d="M999 521q0 -124 -27.5 -224t-79.5 -170.5t-127.5 -108.5t-171.5 -38q-66 0 -122 14t-102 39t-82 59t-61 75v-583h-54v716q-1 2 -1 5l1 315v16q0 115 32.5 202t89 145.5t133 88.5t165.5 30q96 0 171.5 -39.5t128 -112.5t80 -176.5t27.5 -231.5v-21zM944 542
q0 108 -21.5 200.5t-65 160.5t-110 106.5t-155.5 38.5q-102 0 -172 -38.5t-113 -100.5t-62 -139.5t-19 -154.5v-351q19 -50 51.5 -92t78.5 -72.5t105 -48t133 -17.5q88 0 154 35.5t109.5 100t65 154t21.5 197.5v21z" />
    <glyph glyph-name="sigma1" unicode="&#x3c2;" horiz-adv-x="1089" 
d="M573 1102q78 0 149 -23.5t125.5 -71t86.5 -119.5t32 -168h-54q0 84 -28 146t-75 102.5t-108 60t-128 19.5q-99 0 -173 -38t-123.5 -104t-74 -154.5t-24.5 -189.5v-42q0 -102 31 -182t88.5 -139.5t138 -100t179.5 -62.5q65 -14 107 -31.5t67 -41t34.5 -54.5t9.5 -72
q0 -33 -14.5 -68t-35.5 -65t-45.5 -52.5t-43.5 -30.5l-35 32q17 8 38 25.5t39 41.5t30.5 54t12.5 63q0 34 -8 56.5t-28 39t-54 28t-86 23.5q-105 23 -193.5 65t-152 107t-99.5 155t-36 209v42q0 119 31.5 218t90 170.5t142 111.5t187.5 40z" />
    <glyph glyph-name="sigma" unicode="&#x3c3;" horiz-adv-x="1117" 
d="M1117 1027h-345q61 -31 109.5 -77t82.5 -105t52 -130t18 -151v-43q0 -119 -34 -218.5t-96.5 -171t-149.5 -111.5t-192 -40q-106 0 -193.5 40t-150 111.5t-97 170.5t-34.5 218v42q0 113 34.5 208.5t96.5 164.5t149 108t192 39h1h11h546v-55zM141 520q0 -97 28.5 -185
t82.5 -155t132 -106.5t178 -39.5q99 0 176.5 39.5t131 106.5t82 155t28.5 185v42q0 91 -28.5 175t-82.5 148.5t-132 103t-177 38.5t-177 -38.5t-131.5 -103t-82 -148.5t-28.5 -175v-42z" />
    <glyph glyph-name="tau" unicode="&#x3c4;" horiz-adv-x="1027" 
d="M954 1027h-436v-748q0 -71 13.5 -118.5t38 -76t58.5 -40t75 -11.5q31 0 54.5 2.5t52.5 6.5l9 -50q-26 -8 -55.5 -10.5t-57.5 -2.5q-62 0 -107.5 16.5t-75.5 52.5t-45 93t-15 138v748h-390v55h881v-55z" />
    <glyph glyph-name="upsilon" unicode="&#x3c5;" horiz-adv-x="1073" 
d="M222 1082v-697q0 -95 21 -161.5t58.5 -108.5t88.5 -61.5t112 -19.5q99 0 170 41t116.5 109t66.5 155.5t21 180.5q0 165 -32 304.5t-80 257.5h66q18 -51 35.5 -107t32 -122.5t23 -147t8.5 -182.5q0 -118 -27.5 -217.5t-81 -172t-133 -113t-183.5 -40.5q-75 0 -137 23
t-106 72t-68.5 126.5t-24.5 185.5v695h54z" />
    <glyph glyph-name="phi" unicode="&#x3c6;" horiz-adv-x="1365" 
d="M653 -20q-137 5 -234 49t-159 118.5t-91 176.5t-29 222q0 97 21.5 180.5t57.5 151.5t83.5 119.5t100.5 85.5l25 -44q-53 -32 -96.5 -84t-74 -117.5t-47.5 -140.5t-17 -153q0 -94 21 -183.5t73.5 -160t141.5 -115.5t224 -51v859q0 49 16 84.5t41.5 59t56.5 34.5t60 11
q88 0 162.5 -39.5t128.5 -110.5t84.5 -169.5t30.5 -216.5q0 -110 -33.5 -210.5t-99.5 -178.5t-164.5 -125.5t-228.5 -51.5v-459h-54v459zM707 33q119 3 208 47.5t148 116t88 162t29 185.5q0 96 -26 184t-72.5 154.5t-111.5 106t-143 39.5q-24 0 -46 -9.5t-38.5 -27
t-26 -42.5t-9.5 -56v-860z" />
    <glyph glyph-name="psi" unicode="&#x3c8;" horiz-adv-x="1366" 
d="M707 1082v-1048q93 2 164 25t124 61.5t88 90.5t57 113t31 128t9 136q0 72 -12 139t-32.5 129t-48 118.5t-59.5 107.5h67q24 -45 49 -94t45 -107.5t32.5 -130t12.5 -160.5q0 -131 -30 -241.5t-93.5 -191t-163.5 -127t-240 -49.5v-396h-54v396q-113 4 -206 41.5
t-159.5 111.5t-103 187t-36.5 269v492h54v-494q0 -142 33 -244.5t92.5 -169.5t142.5 -101t183 -38v1047h54z" />
    <glyph glyph-name="omega" unicode="&#x3c9;" horiz-adv-x="1690" 
d="M357 1082q-32 -61 -59.5 -127.5t-48 -139t-32.5 -151.5t-12 -164q0 -89 18 -172.5t56.5 -149t97.5 -105t142 -39.5q64 0 119 25t95.5 79.5t63 140t22.5 206.5v285h55v-285q0 -121 22.5 -206.5t62.5 -140t95 -79.5t120 -25q82 0 141.5 39.5t98 105t56.5 149t18 172.5
q0 85 -12 164t-32.5 151.5t-48.5 139t-59 127.5h66q24 -53 49 -110.5t45 -126.5t32.5 -153t12.5 -189q0 -114 -24 -209.5t-70.5 -165.5t-115 -109t-156.5 -39q-59 0 -110.5 15.5t-93.5 48.5t-74 84.5t-51 122.5q-19 -71 -51 -122.5t-74 -84.5t-93.5 -48.5t-110.5 -15.5
q-89 0 -157 39t-114 109t-70 165.5t-24 209.5q0 105 12.5 189t32.5 153t44.5 126.5t49.5 110.5h66z" />
    <glyph glyph-name="uni03D1" unicode="&#x3d1;" horiz-adv-x="1165" 
d="M1137 720q-15 -6 -36.5 -11.5t-46.5 -10.5t-51.5 -8.5t-52.5 -4.5v-264q0 -120 -28 -203.5t-80.5 -136.5t-127 -77t-167.5 -24q-88 0 -161.5 27t-127 81.5t-83 137.5t-29.5 195v325l54 2v-327q0 -101 25 -174t70.5 -120t109.5 -70t142 -23q85 0 150 20t109 65.5t67 119.5
t23 182v265q-137 5 -235.5 43.5t-162 101.5t-94 146t-30.5 179v22q0 75 22 134.5t58.5 100.5t85 62.5t101.5 21.5q75 0 133 -29t97 -83t59 -132t20 -175v-339q53 2 100 12t76 21zM428 1154q0 -80 23.5 -152.5t78 -129t144.5 -92t222 -40.5v338q0 180 -62 272.5t-193 92.5
q-41 0 -79.5 -16t-68 -48.5t-47.5 -82.5t-18 -118v-24z" />
    <glyph glyph-name="uni03D2" unicode="&#x3d2;" horiz-adv-x="1106" 
d="M812 1239q26 62 53.5 105.5t59 70.5t68.5 39.5t82 12.5q32 0 59 -9t43 -19l-23 -41q-10 6 -31.5 14t-51.5 8q-24 0 -49.5 -6t-52 -27t-55 -61.5t-58.5 -110.5l-266 -598v-617h-55v623l-271 592q-31 70 -59.5 110.5t-54.5 61.5t-51 27t-49 6q-30 0 -52 -8t-32 -14l-23 41
q17 10 44 19t59 9q45 0 82 -12.5t68.5 -39.5t58.5 -70.5t53 -105.5l199 -443l53 -127l54 127z" />
    <glyph glyph-name="uni03D6" unicode="&#x3d6;" horiz-adv-x="1612" 
d="M1584 1028h-198q22 -48 42.5 -101.5t36.5 -117t25.5 -139t9.5 -167.5q0 -114 -23.5 -209.5t-70 -165.5t-114.5 -109t-157 -39q-118 0 -204 64t-125 205q-39 -141 -125 -205t-204 -64q-89 0 -157 39t-114 109t-70 165.5t-24 209.5q0 92 10 167.5t26 139t36.5 117
t41.5 101.5h-187v55h1545v-55zM1447 500q0 152 -35.5 283t-89.5 245h-1032q-54 -114 -89.5 -245t-35.5 -283q0 -89 18 -172.5t56.5 -149t97.5 -105t142 -39.5q65 0 120 25t94.5 79.5t62 140t22.5 206.5v287h56v-285v-17.5t-1 -16.5q3 -113 27 -192.5t63.5 -129.5t93 -73.5
t116.5 -23.5q82 0 141.5 39.5t98 105t56.5 149t18 172.5z" />
    <glyph glyph-name="uni0402" unicode="&#x402;" horiz-adv-x="1513" 
d="M1180 1402h-610v-613q41 20 88 36.5t95.5 28.5t96.5 19t91 7q102 0 189.5 -24.5t152 -79.5t101.5 -143.5t37 -217.5q0 -44 -11 -93t-35 -96t-60.5 -90t-87.5 -75.5t-117.5 -52t-148.5 -19.5v51q101 0 177 32.5t127 86t76.5 120.5t25.5 136q0 111 -33 189t-90 127.5
t-135 72.5t-168 23q-99 0 -188.5 -24.5t-182.5 -67.5v-735h-54v1402h-450v54h1114v-54z" />
    <glyph glyph-name="uni0404" unicode="&#x404;" horiz-adv-x="1325" 
d="M1190 446q-11 -118 -52.5 -205.5t-108.5 -145.5t-158 -86.5t-200 -28.5q-120 0 -217.5 46.5t-166 130.5t-106 201.5t-37.5 260.5v218q0 142 37.5 260t106 202t166 130.5t217.5 46.5q109 0 200 -29t158 -86.5t108.5 -144.5t52.5 -204h-54q-23 201 -140 305.5t-325 104.5
q-106 0 -193 -41.5t-149.5 -118t-96.5 -184t-34 -239.5v-73h644v-54h-644v-93q0 -132 34 -240t96.5 -184.5t149.5 -118.5t193 -42q101 0 182 24.5t140.5 75t95.5 128t47 184.5h54z" />
    <glyph glyph-name="uni0409" unicode="&#x409;" horiz-adv-x="2209" 
d="M1233 1456v-648h369q117 0 205.5 -30.5t148 -84.5t89 -128t29.5 -161t-30 -161t-89 -128t-147.5 -84.5t-205.5 -30.5h-423v1402h-609l-38 -580q-14 -224 -38 -380.5t-72.5 -254.5t-128.5 -142.5t-207 -44.5h-32v54h35q65 0 116 13.5t91 46.5t69.5 89t51.5 141.5t36.5 203
t24.5 274.5l42 634h713zM1233 754v-700h369q111 0 190 29t130 78t74.5 112.5t23.5 132.5q0 66 -23.5 128.5t-74.5 111.5t-130 78.5t-190 29.5h-369z" />
    <glyph glyph-name="uni040A" unicode="&#x40a;" horiz-adv-x="2209" 
d="M249 748h930v708h54v-646h369q117 0 205.5 -30.5t148 -84.5t89 -128.5t29.5 -161.5t-30 -161t-89 -128.5t-147.5 -85t-205.5 -30.5h-423v694h-930v-694h-54v1456h54v-708zM1233 756v-703h369q111 0 190 29.5t130 78.5t74.5 113t23.5 133q0 66 -23.5 129t-74.5 111.5
t-130 78.5t-190 30h-369z" />
    <glyph glyph-name="uni040B" unicode="&#x40b;" horiz-adv-x="1629" 
d="M1160 1402h-590v-647q96 26 199.5 44.5t209.5 18.5q115 0 204.5 -24t150.5 -77.5t92.5 -138.5t31.5 -207v-371h-54v371q0 105 -27.5 179.5t-81.5 122t-133.5 69.5t-182.5 22q-104 0 -205 -16.5t-204 -46.5v-701h-54v1402h-470v54h1114v-54z" />
    <glyph glyph-name="uni040F" unicode="&#x40f;" horiz-adv-x="1428" 
d="M195 1456h54v-1402h930v1402h54v-1456h-488v-349h-54v349h-496v1456z" />
    <glyph glyph-name="uni0411" unicode="&#x411;" horiz-adv-x="1280" 
d="M1055 1402h-808v-614h369q117 0 205 -29t147.5 -81t89 -124.5t29.5 -159.5t-30 -159.5t-89 -124.5t-147 -81t-205 -29h-423v1456h862v-54zM247 734v-680h369q111 0 190 27.5t129 74.5t73.5 109t23.5 131q0 66 -23.5 127t-73.5 108t-129 75t-190 28h-369z" />
    <glyph glyph-name="uni0414" unicode="&#x414;" horiz-adv-x="1425" 
d="M1232 54h120v-403h-55v349h-1151v-349h-54v403h76q15 14 41 45.5t56.5 83.5t63 126.5t61 173.5t50.5 225.5t31 282.5l21 465h740v-1402zM525 991q-11 -181 -41.5 -332.5t-71 -270t-87 -203t-88.5 -131.5h941v1348h-635z" />
    <glyph glyph-name="uni0416" unicode="&#x416;" horiz-adv-x="1745" 
d="M1066 720h-171v-720h-54v720h-173l-577 -720h-72l592 737l-557 719h71l529 -682h187v682h54v-682h186l529 682h70l-557 -719l593 -737h-72z" />
    <glyph glyph-name="uni0417" unicode="&#x417;" horiz-adv-x="1221" 
d="M598 771q118 0 202 22t138 63t79 99.5t25 131.5t-25.5 134.5t-79.5 106t-137 69.5t-197 25q-87 0 -165 -24t-136.5 -68.5t-92.5 -109t-34 -145.5h-54q0 93 39 167.5t105.5 126t154 79.5t183.5 28q112 0 203.5 -25t155.5 -74.5t99 -123t35 -170.5q0 -57 -18.5 -109.5
t-55.5 -96.5t-91 -78t-126 -54q161 -34 237.5 -125t76.5 -234q0 -97 -38.5 -172.5t-107 -127.5t-163.5 -79.5t-207 -27.5q-60 0 -121 11t-116.5 34t-104 58t-84.5 82t-56.5 107t-20.5 133h55q0 -81 33 -149t92 -117.5t141.5 -77t181.5 -27.5q111 0 197 24t145 69t89.5 110
t30.5 146q0 89 -30.5 152.5t-89.5 103.5t-146 58.5t-201 18.5h-184v56h184z" />
    <glyph glyph-name="uni0418" unicode="&#x418;" horiz-adv-x="1449" 
d="M1195 1456h54v-1456h-54v1364l-941 -1364h-54v1456h54v-1361z" />
    <glyph glyph-name="uni041B" unicode="&#x41b;" horiz-adv-x="1428" 
d="M1233 1456v-1456h-54v1402h-709l-38 -580q-11 -224 -30.5 -380.5t-59.5 -254.5t-106 -142.5t-170 -44.5h-32v54h35q52 0 92.5 13.5t72.5 46.5t55.5 89t40.5 141.5t28.5 203t19.5 274.5l42 634h813z" />
    <glyph glyph-name="uni0423" unicode="&#x423;" horiz-adv-x="1283" 
d="M668 451l23 45l474 960h66l-599 -1199q-18 -35 -44.5 -82.5t-68 -91t-100 -74t-140.5 -30.5q-19 0 -46 3.5t-41 9.5l15 51q14 -5 35.5 -7.5t41.5 -2.5q55 0 98.5 19t78 51.5t62 74.5t50.5 88l65 127l-605 1063h67z" />
    <glyph glyph-name="uni0424" unicode="&#x424;" horiz-adv-x="1462" 
d="M757 1306h28q141 0 253.5 -44.5t191 -121.5t120.5 -180.5t42 -220.5q0 -118 -42 -221.5t-120.5 -181t-191 -122.5t-253.5 -45h-28v-229h-55v229h-25q-142 0 -254.5 44.5t-191 121.5t-120 180.5t-41.5 221.5q0 117 41.5 221t120 181t191 122t254.5 45h25v211h55v-211z
M757 1252v-1029h30q128 0 230 39.5t173 109t109 163.5t38 204q0 108 -38 202t-109 163t-173 108.5t-230 39.5h-30zM677 1252q-129 0 -231.5 -40t-173.5 -109.5t-109 -163.5t-38 -202q0 -110 38 -204t109 -163t173.5 -108t231.5 -39h25v1029h-25z" />
    <glyph glyph-name="uni0426" unicode="&#x426;" horiz-adv-x="1426" 
d="M184 1456h54v-1402h930v1402h54v-1402h133v-405h-54v351h-1117v1456z" />
    <glyph glyph-name="uni0427" unicode="&#x427;" horiz-adv-x="1325" 
d="M1130 1456v-1456h-54v719q-94 -26 -196.5 -43.5t-205.5 -17.5q-115 0 -204.5 24t-150.5 77t-92.5 138.5t-31.5 207.5v351h54v-351q0 -105 27.5 -179.5t81.5 -122t133.5 -69.5t182.5 -22q102 0 201.5 15.5t200.5 44.5v684h54z" />
    <glyph glyph-name="uni0428" unicode="&#x428;" horiz-adv-x="1866" 
d="M243 1456v-1402h663v1402h55v-1402h663v1402h54v-1456h-1490v1456h55z" />
    <glyph glyph-name="uni0429" unicode="&#x429;" horiz-adv-x="1877" 
d="M243 1456v-1402h663v1402h55v-1402h663v1402h54v-1402h129v-405h-54v351h-1565v1456h55z" />
    <glyph glyph-name="uni042A" unicode="&#x42a;" horiz-adv-x="1617" 
d="M-37 1456h621v-668h369q117 0 205 -29t147.5 -81t89 -124.5t29.5 -159.5t-30 -159.5t-89 -124.5t-147 -81t-205 -29h-423v1402h-567v54zM584 734v-680h369q111 0 190 27.5t129 74.5t73.5 109t23.5 131q0 66 -23.5 127t-73.5 108t-129 75t-190 28h-369z" />
    <glyph glyph-name="uni042B" unicode="&#x42b;" horiz-adv-x="1648" 
d="M247 788h369q117 0 205 -29t147.5 -81t89 -124.5t29.5 -159.5t-30 -159.5t-89 -124.5t-147 -81t-205 -29h-423v1456h54v-668zM247 734v-680h369q111 0 190 27.5t129 74.5t73.5 109t23.5 131q0 66 -23.5 127t-73.5 108t-129 75t-190 28h-369zM1447 0h-54v1456h54v-1456z
" />
    <glyph glyph-name="uni042C" unicode="&#x42c;" horiz-adv-x="1223" 
d="M247 788h369q117 0 205 -29t147.5 -81t89 -124.5t29.5 -159.5t-30 -159.5t-89 -124.5t-147 -81t-205 -29h-423v1456h54v-668zM247 734v-680h369q111 0 190 27.5t129 74.5t73.5 109t23.5 131q0 66 -23.5 127t-73.5 108t-129 75t-190 28h-369z" />
    <glyph glyph-name="uni042D" unicode="&#x42d;" horiz-adv-x="1325" 
d="M189 446q11 -107 47 -184.5t95.5 -128t140.5 -75t182 -24.5q106 0 193 42t149.5 118.5t96.5 184.5t34 240v91h-642v54h642v75q0 132 -34 239.5t-96.5 184t-149.5 118t-193 41.5q-208 0 -325 -104.5t-140 -305.5h-54q11 117 52.5 204t108.5 144.5t157.5 86.5t200.5 29
q120 0 217.5 -46.5t166 -130.5t106 -202t37.5 -260v-218q0 -143 -37.5 -260.5t-106 -201.5t-166 -130.5t-217.5 -46.5q-110 0 -200.5 28.5t-157.5 86.5t-108.5 145.5t-52.5 205.5h54z" />
    <glyph glyph-name="uni042E" unicode="&#x42e;" horiz-adv-x="1896" 
d="M1715 619q0 -143 -38.5 -260.5t-110 -201.5t-172.5 -130.5t-227 -46.5q-125 0 -226.5 46.5t-173.5 130.5t-111 201.5t-39 260.5v114h-327v-733h-54v1456h54v-669h327v50q0 142 38.5 260t110 202t173 130.5t226.5 46.5q126 0 227.5 -46.5t173 -130.5t110.5 -202t39 -260
v-218zM1661 839q0 128 -33.5 235t-97 184.5t-155.5 120.5t-210 43q-117 0 -208.5 -43t-155 -120.5t-96.5 -184.5t-33 -235v-220q0 -129 33.5 -236.5t97 -185t155.5 -120.5t209 -43q118 0 210 43t155 120.5t96 185t33 236.5v220z" />
    <glyph glyph-name="uni042F" unicode="&#x42f;" horiz-adv-x="1200" 
d="M993 0v619h-502l-334 -619h-62l347 632l-5 5q-70 21 -124 57.5t-90.5 85t-55.5 109t-19 129.5q0 105 33 187t94.5 137.5t149 84.5t197.5 29h426v-1456h-55zM202 1020q0 -77 24.5 -140.5t71 -109t112.5 -71t150 -25.5h433v728h-371q-104 0 -182.5 -26t-131.5 -75
t-79.5 -120t-26.5 -161z" />
    <glyph glyph-name="uni0431" unicode="&#x431;" horiz-adv-x="1122" 
d="M570 1002q106 0 193.5 -35.5t150 -99t97 -152t34.5 -193.5v-42q0 -110 -34.5 -202t-96.5 -158t-149.5 -103t-192.5 -37t-192.5 37t-150.5 103t-97.5 158t-34.5 202v42v15v55q0 166 34 301.5t97 234t152.5 158t200.5 74.5q93 13 151.5 32t92 44t46 54.5t12.5 62.5h54
q0 -106 -89 -168t-258 -79q-84 -9 -154 -49t-124.5 -107t-91.5 -159t-55 -205q60 101 164 158.5t241 57.5zM570 948q-99 0 -177 -35t-131.5 -94t-82 -136t-28.5 -161v-42q0 -89 28.5 -169.5t82.5 -142t132 -98t178 -36.5q99 0 176.5 36.5t131 98t82 142t28.5 169.5v42
q0 84 -28.5 161.5t-82.5 136t-132 93.5t-177 35z" />
    <glyph glyph-name="uni0432" unicode="&#x432;" 
d="M181 0v1082h372q94 0 169.5 -17t128 -51.5t80.5 -87t28 -124.5q0 -90 -55.5 -157t-158.5 -90h1q56 -6 103.5 -29t82.5 -58t54.5 -80t19.5 -95q0 -73 -28 -128t-79 -91.5t-121.5 -55t-155.5 -18.5h-441zM235 521v-467h387q76 0 137.5 15.5t104.5 45.5t66 74.5t23 102.5
q0 51 -23 93t-66 72.5t-104.5 47t-137.5 16.5h-387zM235 575h338q164 0 248 58t84 172q0 116 -90 169t-262 53h-318v-452z" />
    <glyph glyph-name="uni0433" unicode="&#x433;" horiz-adv-x="867" 
d="M822 1027h-596v-1027h-54v1082h650v-55z" />
    <glyph glyph-name="uni0434" unicode="&#x434;" horiz-adv-x="1112" 
d="M131 54q24 32 58 78t66.5 120.5t57 184.5t28.5 269l20 376h581v-1028h86v-372h-54v318h-871v-318h-44v372h72zM395 706q-3 -132 -21.5 -235.5t-46.5 -182t-61.5 -136t-67.5 -98.5h690v974h-476z" />
    <glyph glyph-name="uni0436" unicode="&#x436;" horiz-adv-x="1574" 
d="M961 528h-156v-528h-54v528h-155l-498 -528h-71l511 552l-448 530h67l430 -500h164v500h54v-500h167l429 500h69l-451 -530l513 -552h-71z" />
    <glyph glyph-name="uni0437" unicode="&#x437;" horiz-adv-x="1035" 
d="M513 580q91 0 154.5 16t103 45t57.5 71t18 93t-18.5 95.5t-58 77.5t-102.5 51.5t-152 18.5q-66 0 -126 -17.5t-106 -50t-73.5 -78.5t-27.5 -103h-55q0 69 32 125t86 95.5t124 61t146 21.5q90 0 161.5 -19.5t121.5 -58t76.5 -94.5t26.5 -128q0 -41 -13.5 -79t-39.5 -70
t-65.5 -57.5t-91.5 -41.5q118 -27 173.5 -94t55.5 -170q0 -73 -29.5 -130.5t-82.5 -97t-127.5 -60.5t-164.5 -21q-71 0 -143.5 19.5t-131 59t-95.5 99.5t-37 142h55q0 -57 27 -105.5t74 -84t111.5 -55.5t139.5 -20q172 0 260.5 67.5t88.5 183.5q0 126 -88 182t-264 56h-145
v55h145z" />
    <glyph glyph-name="uni0438" unicode="&#x438;" 
d="M895 1082h55v-1082h-55v986l-669 -986h-54v1082h54v-986z" />
    <glyph glyph-name="uni043A" unicode="&#x43a;" horiz-adv-x="1016" 
d="M424 529h-198v-529h-55v1082h55v-500h208l429 500h78l-460 -530l523 -552h-81z" />
    <glyph glyph-name="uni043B" unicode="&#x43b;" horiz-adv-x="1122" 
d="M950 1082v-1082h-55v1027h-518l-18 -437q-6 -158 -22.5 -270t-48.5 -183t-83.5 -104t-128.5 -33h-32v53h35q54 0 93.5 24.5t67 85t43.5 164.5t22 263l20 492h625z" />
    <glyph glyph-name="uni043C" unicode="&#x43c;" horiz-adv-x="1476" 
d="M747 82l492 1000h65v-1082h-55v978l-481 -978h-42l-491 1002v-1002h-54v1082h74z" />
    <glyph glyph-name="uni043D" unicode="&#x43d;" 
d="M950 0h-55v529h-669v-529h-54v1082h54v-499h669v499h55v-1082z" />
    <glyph glyph-name="uni043F" unicode="&#x43f;" 
d="M950 0h-55v1027h-669v-1027h-54v1082h778v-1082z" />
    <glyph glyph-name="uni0442" unicode="&#x442;" horiz-adv-x="962" 
d="M922 1027h-425v-1027h-54v1027h-403v55h882v-55z" />
    <glyph glyph-name="uni0444" unicode="&#x444;" horiz-adv-x="1484" 
d="M122 542q0 128 26.5 231.5t76 176.5t121.5 112.5t164 39.5q74 0 124 -20.5t82 -46.5v501h54v-500q31 26 80.5 46t123.5 20q91 0 163.5 -39.5t122 -112.5t76 -176.5t26.5 -231.5v-21q0 -124 -26 -224t-75.5 -170.5t-121.5 -109t-163 -38.5q-73 0 -124 19.5t-82 42.5v-457
h-54v457q-32 -23 -83.5 -42.5t-124.5 -19.5q-91 0 -163 38.5t-121.5 109t-75.5 170.5t-26 224v21zM178 521q0 -108 20 -198t61 -154.5t103 -100t145 -35.5q43 0 77.5 7.5t60 18.5t43 23t28.5 20v861q-8 12 -22.5 27t-38.5 27.5t-59.5 21.5t-86.5 9q-84 0 -146 -38.5
t-103.5 -106.5t-61.5 -160.5t-20 -200.5v-21zM1308 542q0 108 -20.5 200.5t-61.5 160.5t-104 106.5t-147 38.5q-50 0 -85 -8.5t-59 -21t-38.5 -27t-22.5 -26.5v-864q10 -8 27.5 -20t43 -22.5t59.5 -18t77 -7.5q84 0 146 35.5t103 100t61.5 154.5t20.5 198v21z" />
    <glyph glyph-name="uni0446" unicode="&#x446;" horiz-adv-x="1120" 
d="M172 1082h54v-1028h669v1028h55v-1028h91v-375h-54v321h-815v1082z" />
    <glyph glyph-name="uni0447" unicode="&#x447;" horiz-adv-x="1067" 
d="M895 0h-54v522q-31 -15 -70.5 -29.5t-81.5 -25.5t-84.5 -18t-78.5 -7q-105 0 -182.5 17.5t-127.5 63t-74.5 124t-24.5 201.5v234h54v-234q0 -106 20.5 -174t63.5 -107.5t110.5 -55t160.5 -15.5q41 2 85.5 9t87 17.5t79.5 23.5t63 27v509h54v-1082z" />
    <glyph glyph-name="uni0448" unicode="&#x448;" horiz-adv-x="1594" 
d="M226 1082v-1028h567v1028h55v-1028h558v1028h54v-1082h-1288v1082h54z" />
    <glyph glyph-name="uni0449" unicode="&#x449;" horiz-adv-x="1592" 
d="M226 1082v-1028h567v1028h55v-1028h558v1028h54v-1028h108v-375h-54v321h-1342v1082h54z" />
    <glyph glyph-name="uni044A" unicode="&#x44a;" horiz-adv-x="1309" 
d="M40 1082h423v-412h345q94 0 166 -25.5t121 -70t74.5 -106t25.5 -133.5q0 -73 -25.5 -134.5t-74.5 -106t-121 -69.5t-166 -25h-399v1028h-369v54zM463 616v-562h345q88 0 151.5 23.5t103.5 62.5t59 90t19 107q0 53 -19 103.5t-59 89.5t-103.5 62.5t-151.5 23.5h-345z" />
    <glyph glyph-name="uni044B" unicode="&#x44b;" horiz-adv-x="1486" 
d="M235 670h345q94 0 166 -25.5t121 -70t74.5 -106t25.5 -133.5q0 -73 -25.5 -134.5t-74.5 -106t-121 -69.5t-166 -25h-399v1082h54v-412zM235 616v-562h345q88 0 151.5 23.5t103.5 62.5t59 90t19 107q0 53 -19 103.5t-59 89.5t-103.5 62.5t-151.5 23.5h-345zM1315 0h-54
v1082h54v-1082z" />
    <glyph glyph-name="uni044C" unicode="&#x44c;" horiz-adv-x="1080" 
d="M235 670h345q94 0 166 -25.5t121 -70t74.5 -106t25.5 -133.5q0 -73 -25.5 -134.5t-74.5 -106t-121 -69.5t-166 -25h-399v1082h54v-412zM235 616v-562h345q88 0 151.5 23.5t103.5 62.5t59 90t19 107q0 53 -19 103.5t-59 89.5t-103.5 62.5t-151.5 23.5h-345z" />
    <glyph glyph-name="uni044D" unicode="&#x44d;" horiz-adv-x="1089" 
d="M514 1048q-60 0 -120 -16t-108 -52t-78 -93t-30 -138h-56q0 86 33.5 152t88.5 110.5t125.5 67.5t144.5 23q105 0 189 -40t142.5 -111.5t89.5 -170.5t31 -218v-42q0 -119 -31 -218t-89.5 -170.5t-141.5 -111.5t-188 -40q-78 0 -149.5 23.5t-125.5 71t-86.5 119
t-32.5 168.5h56q0 -85 28 -146.5t74.5 -102t107.5 -60t128 -19.5q98 0 172 38t123.5 103t74.5 153t26 188h-572v54h572q-1 100 -26.5 187.5t-75 152t-123.5 101.5t-173 37z" />
    <glyph glyph-name="uni044E" unicode="&#x44e;" horiz-adv-x="1659" 
d="M235 557h358v5q0 119 34.5 218t97 170.5t149.5 111.5t192 40q106 0 193.5 -40t149.5 -111.5t96.5 -170.5t34.5 -218v-42q0 -119 -34 -218t-96.5 -170.5t-149.5 -111.5t-192 -40q-104 0 -190 38.5t-148.5 107.5t-98 165t-38.5 212h-358v-503h-54v1082h54v-525zM647 520
q0 -97 28.5 -185t82.5 -155t132 -106.5t178 -39.5q99 0 176.5 39.5t131 106.5t82 155t28.5 185v42q0 95 -28.5 182.5t-82.5 155t-132 108t-177 40.5t-177 -40.5t-131.5 -108t-82 -155t-28.5 -182.5v-42z" />
    <glyph glyph-name="uni044F" unicode="&#x44f;" horiz-adv-x="1101" 
d="M924 1082v-1082h-54v450h-388h-8l-271 -450h-64l273 455q-62 10 -109 37.5t-79 68t-48.5 93t-16.5 112.5q0 68 24 126t70 100t114 66t157 24h400zM213 764q0 -50 15 -96.5t47.5 -82.5t83.5 -58t123 -22h388v522h-346q-83 0 -142 -21.5t-96.5 -57.5t-55 -84t-17.5 -100z
" />
    <glyph glyph-name="uni0452" unicode="&#x452;" 
d="M558 1261h-332v-431q24 57 61.5 107t86.5 86.5t108.5 57.5t127.5 21q82 0 146 -22.5t108 -71t67 -124.5t23 -184v-789q0 -170 -75.5 -259t-210.5 -89q-36 0 -67 5t-65 15l13 52q18 -6 52 -12t67 -6q112 0 172 76t60 218v789q0 103 -21.5 170.5t-60.5 107t-93 55.5
t-118 16q-59 0 -108 -16.5t-88.5 -44.5t-70.5 -64t-53.5 -76t-37.5 -80t-23 -75v-693h-54v1261h-201v54h201v221h54v-221h332v-54z" />
    <glyph glyph-name="uni0454" unicode="&#x454;" horiz-adv-x="1089" 
d="M554 34q63 0 123.5 17t108.5 52.5t79 91t36 133.5h54q-4 -83 -37.5 -147.5t-88 -109t-125.5 -68t-150 -23.5q-105 0 -187.5 40t-139 111.5t-86 170.5t-29.5 218v42q0 119 29.5 218t86 170.5t138 111.5t186.5 40q78 0 149.5 -24t126.5 -71.5t89 -118t38 -163.5h-54
q-4 81 -34 141.5t-77.5 101t-109 60.5t-128.5 20q-99 0 -171 -37.5t-119.5 -102t-71 -152t-24.5 -186.5h581v-54h-581q0 -101 23.5 -189t71 -153t120.5 -102.5t173 -37.5z" />
    <glyph glyph-name="uni0459" unicode="&#x459;" horiz-adv-x="1764" 
d="M950 1082v-452h345q94 0 166 -24t121 -66t74.5 -99.5t25.5 -125.5t-25.5 -126t-74.5 -100t-121 -65.5t-166 -23.5h-400v1027h-546v-437q0 -158 -15.5 -270t-49 -183t-87.5 -104t-131 -33h-32v54h35q54 0 96 24t71 85t44 164.5t15 262.5v492h655zM950 576v-522h345
q88 0 151.5 21.5t103.5 58t59 84t19 99.5q0 49 -19 96t-59 83t-103.5 58t-151.5 22h-345z" />
    <glyph glyph-name="uni045A" unicode="&#x45a;" horiz-adv-x="1764" 
d="M226 632h669v450h55v-452h345q94 0 166 -24t121 -66t74.5 -99.5t25.5 -125.5t-25.5 -126t-74.5 -100t-121 -65.5t-166 -23.5h-400v578h-669v-578h-54v1082h54v-450zM950 576v-522h345q88 0 151.5 21.5t103.5 58t59 84t19 99.5q0 49 -19 96t-59 83t-103.5 58t-151.5 22
h-345z" />
    <glyph glyph-name="uni045B" unicode="&#x45b;" 
d="M558 1280h-332v-450q24 57 61.5 107t86.5 86.5t108.5 57.5t127.5 21q82 0 146 -22.5t108 -71t67 -124.5t23 -184v-700h-54v700q0 103 -21.5 170.5t-60.5 107t-93 55.5t-118 16q-59 0 -108 -16.5t-88.5 -44.5t-70.5 -64t-53.5 -76t-37.5 -80t-23 -75v-693h-54v1280h-201
v54h201v202h54v-202h332v-54z" />
    <glyph glyph-name="uni045F" unicode="&#x45f;" 
d="M226 1082v-1028h669v1028h55v-1082h-358v-350h-54v350h-366v1082h54z" />
    <glyph glyph-name="uni0460" unicode="&#x460;" horiz-adv-x="1836" 
d="M1641 1456v-1027q0 -113 -28.5 -197t-78.5 -140t-119.5 -84t-150.5 -28q-62 0 -117 16t-100 48t-79.5 80t-54.5 113q-20 -65 -54.5 -113t-79.5 -80t-100 -48t-116 -16q-81 0 -150.5 28t-120 84t-79 140t-28.5 197v1027h54v-1027q0 -96 24.5 -169.5t68 -123.5t102.5 -76
t129 -26q69 0 128.5 26t102.5 76t67.5 123.5t24.5 169.5v1027h54v-1027q0 -96 24.5 -169.5t67.5 -123.5t102.5 -76t129.5 -26q69 0 128.5 26t102.5 76t67.5 123.5t24.5 169.5v1027h54z" />
    <glyph glyph-name="uni0461" unicode="&#x461;" horiz-adv-x="1794" 
d="M1561 1082v-673q0 -108 -27 -188.5t-74.5 -134.5t-113 -80.5t-142.5 -26.5q-58 0 -109.5 15t-94.5 45t-75.5 75.5t-51.5 105.5q-40 -121 -127.5 -181t-202.5 -60q-77 0 -142.5 26.5t-113.5 80.5t-75 134.5t-27 188.5v673h54v-673q0 -91 23 -161t63.5 -118t96 -72.5
t121.5 -24.5t121.5 24.5t96 72.5t63 118t22.5 161v673h54v-673q0 -91 23 -161t63.5 -118t96.5 -72.5t121 -24.5q66 0 121.5 24.5t96 72.5t63 118t22.5 161v673h54z" />
    <glyph glyph-name="uni0463" unicode="&#x463;" horiz-adv-x="1080" 
d="M564 1082h-329v-412h345q94 0 166 -25.5t121 -70t74.5 -106t25.5 -133.5q0 -73 -25.5 -134.5t-74.5 -106t-121 -69.5t-166 -25h-399v1082h-204v54h204v402h54v-402h329v-54zM235 616v-562h345q88 0 151.5 23.5t103.5 62.5t59 90t19 107q0 53 -19 103.5t-59 89.5
t-103.5 62.5t-151.5 23.5h-345z" />
    <glyph glyph-name="uni0464" unicode="&#x464;" horiz-adv-x="1825" 
d="M291 794h320v44q0 142 37.5 260t106 202t166 130.5t217.5 46.5q109 0 200 -29t158 -86.5t108.5 -144.5t52.5 -204h-54q-23 201 -140 305.5t-325 104.5q-106 0 -193 -41.5t-149.5 -118t-96.5 -184t-34 -239.5v-46h520v-54h-520v-120q0 -132 34 -240t96.5 -184.5
t149.5 -118.5t193 -42q101 0 182 24.5t140.5 75t95.5 128t47 184.5h54q-11 -118 -52.5 -205.5t-108.5 -145.5t-158 -86.5t-200 -28.5q-120 0 -217.5 46.5t-166 130.5t-106 201.5t-37.5 260.5v120h-320v-740h-54v1456h54v-662z" />
    <glyph glyph-name="uni0465" unicode="&#x465;" horiz-adv-x="1518" 
d="M233 588h306q3 114 34 208.5t87.5 162.5t136.5 105.5t182 37.5q78 0 149.5 -24t126.5 -71.5t89 -118t38 -163.5h-54q-4 81 -34 141.5t-77.5 101t-109 60.5t-128.5 20q-96 0 -167.5 -35.5t-119 -98t-72 -146.5t-27.5 -180h507v-54h-507v-14q0 -102 23 -190.5t71 -154
t121 -103.5t173 -38q63 0 123.5 17t108.5 52.5t79 91t36 133.5h54q-4 -83 -37.5 -147.5t-88 -109t-125.5 -68t-150 -23.5q-105 0 -187.5 40t-139 111.5t-86 170.5t-29.5 218v14h-306v-534h-54v1082h54v-494z" />
    <glyph glyph-name="uni0466" unicode="&#x466;" horiz-adv-x="1224" 
d="M939 508h-307v-508h-54v508h-295l-190 -508h-59l544 1456h66l545 -1456h-59zM303 562h616l-277 742l-31 94l-30 -94z" />
    <glyph glyph-name="uni0467" unicode="&#x467;" horiz-adv-x="1067" 
d="M778 395h-224v-395h-54v395h-233l-172 -395h-59l461 1080v2h52l461 -1082h-58zM291 449h463l-177 404l-54 155l-55 -155z" />
    <glyph glyph-name="uni0468" unicode="&#x468;" horiz-adv-x="1793" 
d="M309 562h464l334 894h66l545 -1456h-59l-191 508h-307v-508h-54v508h-295l-190 -508h-59l190 508h-444v-508h-54v1456h54v-894zM832 562h616l-277 742l-31 94l-30 -94z" />
    <glyph glyph-name="uni0469" unicode="&#x469;" horiz-adv-x="1537" 
d="M268 449h406l270 631v2h52l461 -1082h-58l-174 395h-224v-395h-54v395h-233l-172 -395h-59l168 395h-383v-395h-54v1082h54v-633zM738 449h463l-177 404l-54 155l-55 -155z" />
    <glyph glyph-name="uni046A" unicode="&#x46a;" horiz-adv-x="1593" 
d="M167 0v389q0 97 28 165.5t80.5 112t128 63t170.5 19.5h161l-473 707h1066l-474 -707h165q96 0 171 -19.5t127.5 -63t80 -112t27.5 -165.5v-389h-54v389q0 85 -21 143.5t-64.5 94.5t-110 52t-156.5 16h-197v-695h-54v695h-194q-90 0 -156.5 -16t-110 -52t-64.5 -94.5
t-21 -143.5v-389h-55zM1226 1402h-864l406 -619l21 -34h11l21 34z" />
    <glyph glyph-name="uni046B" unicode="&#x46b;" horiz-adv-x="1389" 
d="M771 585h44q96 0 171.5 -19.5t128 -63t80 -112t27.5 -165.5v-225h-54v225q0 84 -21.5 142.5t-65 94.5t-110 52t-156.5 16h-85l-7 -10v-520h-54v521l-6 9h-88q-90 0 -156.5 -16t-110 -52t-65 -94.5t-21.5 -142.5v-225h-55v225q0 98 28 166.5t80.5 111.5t128.5 62.5
t171 19.5h47l-370 497h889zM1035 1027h-677l322 -431l5 -11h22l6 12z" />
    <glyph glyph-name="uni046C" unicode="&#x46c;" horiz-adv-x="2119" 
d="M290 749h790h19h161l-473 707h1066l-474 -707h165q96 0 171 -19.5t127.5 -63t80 -112t27.5 -165.5v-389h-54v389q0 85 -21 143.5t-64.5 94.5t-110 52t-156.5 16h-197v-695h-54v695h-194q-90 0 -156.5 -16t-110 -52t-64.5 -94.5t-21 -143.5v-389h-55v389q0 116 39 190.5
t112 115.5h-553v-695h-54v1456h54v-707zM1751 1402h-864l406 -619l21 -34h11l21 34z" />
    <glyph glyph-name="uni046D" unicode="&#x46d;" horiz-adv-x="1796" 
d="M235 585h727h19h47l-370 497h889l-370 -497h44q96 0 171.5 -19.5t128 -63t80 -112t27.5 -165.5v-225h-54v225q0 84 -21.5 142.5t-65 94.5t-110 52t-156.5 16h-85l-7 -10v-520h-54v521l-6 9h-88h-9h-9q-86 -2 -149 -19t-104.5 -53t-61.5 -93.5t-20 -139.5v-225h-55v225
q0 115 38 189t110 116h-486v-530h-54v1082h54v-497zM1441 1027h-677l322 -431l5 -11h22l6 12z" />
    <glyph glyph-name="uni046E" unicode="&#x46e;" horiz-adv-x="1049" 
d="M490 771q118 0 201.5 22t137 63t78.5 99.5t25 131.5q0 69 -24.5 126.5t-75.5 99.5t-130 65.5t-188 23.5h-336v54h336q108 0 195.5 -24t149 -71t95 -116.5t33.5 -161.5q0 -57 -18.5 -109.5t-55 -96.5t-90.5 -78t-125 -54q159 -34 235.5 -125t76.5 -234q0 -92 -42 -163.5
t-114 -121t-168 -75t-204 -25.5h-82q-54 0 -91 -9.5t-60 -27.5t-33 -44.5t-10 -60.5q0 -33 18.5 -63.5t45.5 -55t58.5 -42t57.5 -24.5l-15 -52q-32 9 -70 30.5t-71 52.5t-55 70t-22 83q0 41 13.5 77t42.5 62.5t76 41.5t115 15h82q106 0 193 22.5t149.5 65t96.5 103t34 137.5
q0 89 -30.5 152.5t-89.5 103.5t-145.5 58.5t-199.5 18.5h-123v56h123zM595 1680l194 217h53v-13l-218 -250h-59l-220 252v11h57z" />
    <glyph glyph-name="uni046F" unicode="&#x46f;" horiz-adv-x="996" 
d="M407 585q102 0 174 16t118 46t67.5 73t21.5 97q0 45 -21 83.5t-64.5 66.5t-111 44t-160.5 16h-282v55h282q94 0 170.5 -17t130.5 -51t83 -84.5t29 -116.5q0 -84 -58 -151.5t-170 -102.5q127 -28 188.5 -92.5t61.5 -162.5q0 -72 -37 -128.5t-100.5 -95.5t-148.5 -59
t-180 -20h-41q-54 0 -91 -9.5t-60 -27.5t-33 -44.5t-10 -60.5q0 -33 18.5 -63.5t45.5 -55t58.5 -42t58.5 -24.5l-16 -52q-31 9 -69 30.5t-71 52.5t-55.5 70t-22.5 83q0 41 13.5 77t43 62.5t76.5 41.5t114 15h41q92 0 168 17t130 48.5t83.5 77.5t29.5 103q0 123 -103.5 176
t-300.5 53h-122v56h122zM434 1363l194 217h53v-13l-218 -250h-59l-220 252v11h57z" />
    <glyph glyph-name="uni0472" unicode="&#x472;" horiz-adv-x="1364" 
d="M1231 619q0 -143 -38.5 -260.5t-110 -201.5t-172.5 -130.5t-227 -46.5q-125 0 -226.5 46.5t-173.5 130.5t-111 201.5t-39 260.5v218q0 142 38.5 260t110 202t173 130.5t226.5 46.5q126 0 227.5 -46.5t173 -130.5t110.5 -202t39 -260v-218zM188 755h989v84
q0 128 -33.5 235t-97 184.5t-155.5 120.5t-210 43q-117 0 -208.5 -43t-155 -120.5t-96.5 -184.5t-33 -235v-84zM1177 701h-989v-82q0 -129 33.5 -236.5t97 -185t155.5 -120.5t209 -43q118 0 210 43t155 120.5t96 185t33 236.5v82z" />
    <glyph glyph-name="uni0473" unicode="&#x473;" horiz-adv-x="1153" 
d="M87 562q0 119 34.5 218t97 170.5t149.5 111.5t192 40q106 0 193.5 -40t149.5 -111.5t96.5 -170.5t34.5 -218v-42q0 -119 -34 -218t-96.5 -170.5t-149.5 -111.5t-192 -40q-106 0 -193.5 40t-150 111.5t-97 170.5t-34.5 218v42zM560 1048q-99 0 -176.5 -40t-131 -106.5
t-82 -153.5t-29.5 -181h839q-1 94 -29.5 181t-82.5 153.5t-131.5 106.5t-176.5 40zM562 34q97 0 174.5 39t131 104.5t82.5 152.5t30 183h-839q1 -96 30 -183t83 -152.5t131.5 -104.5t176.5 -39z" />
    <glyph glyph-name="uni0474" unicode="&#x474;" horiz-adv-x="1233" 
d="M511 142l28 -86l29 86l352 1086q21 70 50 118t65 76.5t80 41t96 12.5h9l-1 -47h-10q-29 0 -61.5 -5t-65 -27t-63 -67t-55.5 -126l-392 -1204h-65l-472 1456h59z" />
    <glyph glyph-name="uni0475" unicode="&#x475;" horiz-adv-x="991" 
d="M393 229l54 -156l56 156l237 705q32 93 78 130t114 37q27 0 50.5 -7t32.5 -12l-13 -45q-7 4 -27 10.5t-47 6.5q-18 0 -36 -3.5t-36 -17.5t-36 -43.5t-36 -80.5l-311 -909h-52v1l-378 1081h58z" />
    <glyph glyph-name="uni047A" unicode="&#x47a;" horiz-adv-x="1364" 
d="M709 1291h-54v307h54v-307zM709 -144h-54v307h54v-307zM1231 619q0 -143 -38.5 -260.5t-110 -201.5t-172.5 -130.5t-227 -46.5q-125 0 -226.5 46.5t-173.5 130.5t-111 201.5t-39 260.5v218q0 142 38.5 260t110 202t173 130.5t226.5 46.5q126 0 227.5 -46.5t173 -130.5
t110.5 -202t39 -260v-218zM1177 839q0 128 -33.5 235t-97 184.5t-155.5 120.5t-210 43q-117 0 -208.5 -43t-155 -120.5t-96.5 -184.5t-33 -235v-220q0 -129 33.5 -236.5t97 -185t155.5 -120.5t209 -43q118 0 210 43t155 120.5t96 185t33 236.5v220z" />
    <glyph glyph-name="uni047B" unicode="&#x47b;" 
d="M588 910h-54v307h54v-307zM588 -146h-54v307h54v-307zM87 562q0 119 34.5 218t97 170.5t149.5 111.5t192 40q106 0 193.5 -40t149.5 -111.5t96.5 -170.5t34.5 -218v-42q0 -119 -34 -218t-96.5 -170.5t-149.5 -111.5t-192 -40q-106 0 -193.5 40t-150 111.5t-97 170.5
t-34.5 218v42zM141 520q0 -97 28.5 -185t82.5 -155t132 -106.5t178 -39.5q99 0 176.5 39.5t131 106.5t82 155t28.5 185v42q0 95 -28.5 182.5t-82.5 155t-132 108t-177 40.5t-177 -40.5t-131.5 -108t-82 -155t-28.5 -182.5v-42z" />
    <glyph glyph-name="uni047C" unicode="&#x47c;" horiz-adv-x="1824" 
d="M1263 1454q81 0 150.5 -28t120 -84t79 -140.5t28.5 -197.5v-575q0 -113 -28.5 -197.5t-79 -140.5t-120 -84t-150.5 -28q-62 0 -117 16t-100 48t-79 80t-54 113q-20 -65 -54.5 -113t-79.5 -80t-100 -48t-116 -16q-81 0 -150.5 28t-120 84t-79 140.5t-28.5 197.5v575
q0 113 28.5 197.5t79 140.5t120 84t150.5 28v-54q-70 0 -129 -26t-102.5 -76.5t-68 -124t-24.5 -169.5v-575q0 -96 24.5 -169.5t68 -124t102.5 -76.5t129 -26q69 0 128.5 26t102.5 76.5t67.5 124t24.5 169.5v510h54v-510q0 -96 24.5 -169.5t67.5 -124t102.5 -76.5t128.5 -26
q70 0 129 26t102.5 76.5t68 124t24.5 169.5v575q0 96 -24.5 169.5t-68 124t-102.5 76.5t-129 26v54zM1384 1617v-44h-17q-58 0 -102 14t-79.5 34.5t-65.5 45t-59.5 45t-62 34.5t-72.5 14q-48 0 -83 -15.5t-57.5 -41t-33.5 -58.5t-11 -68v-18h-55v26q0 46 16 87.5t46.5 73
t74 49.5t99.5 18q45 0 81.5 -14.5t69 -36.5t63.5 -47t65.5 -47t75.5 -36.5t93 -14.5h14zM860 1380q18 12 31.5 25t22.5 29t13.5 36t4.5 46v99h54v-102q0 -32 -10 -59t-25.5 -49t-34 -38t-35.5 -25z" />
    <glyph glyph-name="uni047D" unicode="&#x47d;" horiz-adv-x="1699" 
d="M1174 1097q77 0 142.5 -26.5t113.5 -80.5t75 -134.5t27 -188.5v-258q0 -108 -27 -188.5t-75 -134.5t-113.5 -80.5t-142.5 -26.5q-58 0 -109.5 15t-94 45t-75 75.5t-51.5 105.5q-40 -121 -127.5 -181t-202.5 -60q-77 0 -142.5 26.5t-113.5 80.5t-75 134.5t-27 188.5v258
q0 108 27 188.5t75 134.5t113.5 80.5t142.5 26.5v-54q-66 0 -121.5 -24.5t-96 -72.5t-63.5 -118t-23 -161v-258q0 -91 23 -161t63.5 -118t96 -72.5t121.5 -24.5t121.5 24.5t96 72.5t63 118t22.5 161v254h54v-254q0 -91 22.5 -161t63 -118t96 -72.5t121.5 -24.5t121.5 24.5
t96 72.5t63.5 118t23 161v258q0 91 -23 161t-63.5 118t-96 72.5t-121.5 24.5v54zM1305 1317v-44h-17q-58 0 -102 14t-79.5 34.5t-65.5 45t-59.5 45t-62 34.5t-72.5 14q-48 0 -83 -15.5t-57.5 -41t-33.5 -58.5t-11 -68v-18h-55v26q0 46 16 87.5t46.5 73t74 49.5t99.5 18
q45 0 81.5 -14.5t69 -36.5t63.5 -47t65.5 -47t75.5 -36.5t93 -14.5h14zM762 1067q18 12 31.5 25t22.5 29t13.5 36t4.5 46v99h54v-102q0 -32 -10 -59t-25.5 -49t-34 -38t-35.5 -25z" />
    <glyph glyph-name="uni047E" unicode="&#x47e;" horiz-adv-x="1836" 
d="M565 1705v56h699l2 -56h-332v-103h-54v103h-315zM1641 1456v-1027q0 -113 -28.5 -197t-78.5 -140t-119.5 -84t-150.5 -28q-62 0 -117 16t-100 48t-79.5 80t-54.5 113q-20 -65 -54.5 -113t-79.5 -80t-100 -48t-116 -16q-81 0 -150.5 28t-120 84t-79 140t-28.5 197v1027h54
v-1027q0 -96 24.5 -169.5t68 -123.5t102.5 -76t129 -26q69 0 128.5 26t102.5 76t67.5 123.5t24.5 169.5v1027h54v-1027q0 -96 24.5 -169.5t67.5 -123.5t102.5 -76t129.5 -26q69 0 128.5 26t102.5 76t67.5 123.5t24.5 169.5v1027h54z" />
    <glyph glyph-name="uni047F" unicode="&#x47f;" horiz-adv-x="1794" 
d="M522 1400l3 56h699l2 -56h-333v-133h-54v133h-317zM1561 1082v-673q0 -108 -27 -188.5t-74.5 -134.5t-113 -80.5t-142.5 -26.5q-58 0 -109.5 15t-94.5 45t-75.5 75.5t-51.5 105.5q-40 -121 -127.5 -181t-202.5 -60q-77 0 -142.5 26.5t-113.5 80.5t-75 134.5t-27 188.5
v673h54v-673q0 -91 23 -161t63.5 -118t96 -72.5t121.5 -24.5t121.5 24.5t96 72.5t63 118t22.5 161v673h54v-673q0 -91 23 -161t63.5 -118t96.5 -72.5t121 -24.5q66 0 121.5 24.5t96 72.5t63 118t22.5 161v673h54z" />
    <glyph glyph-name="uni0480" unicode="&#x480;" horiz-adv-x="1262" 
d="M717 -351h-55v330q-118 2 -214 55.5t-163.5 148t-104 226t-36.5 290.5v78q0 156 39 285t110 221t172 143t226 51q106 0 192.5 -29t150 -87t101 -145t45.5 -204h-54q-23 201 -129.5 306t-305.5 105q-111 0 -201.5 -46t-155.5 -130.5t-100.5 -203.5t-35.5 -264v-80
q0 -149 33.5 -271t94.5 -209t146.5 -135.5t189.5 -50.5h55v-384z" />
    <glyph glyph-name="uni0481" unicode="&#x481;" horiz-adv-x="1048" 
d="M621 -351h-54v330q-104 1 -186 42t-140 112.5t-88.5 170t-30.5 216.5v42q0 119 31.5 218t90 170.5t142 111.5t187.5 40q78 0 149 -23.5t125.5 -71t86.5 -119t32 -168.5h-54q0 84 -28 146t-74.5 102.5t-108 60t-128.5 19.5q-99 0 -173 -38t-123.5 -104t-74 -154.5
t-24.5 -189.5v-42q0 -101 24 -189t72.5 -153.5t121.5 -104.5t171 -40h54v-384z" />
    <glyph glyph-name="uni0482" unicode="&#x482;" horiz-adv-x="1221" 
d="M554 419l289 -172l-39 -68l-291 170l-191 -349h-102l225 398l-289 171l38 68l293 -171l235 420l-290 171l40 70l291 -171l218 386h99l-251 -435l293 -171l-43 -67l-288 170z" />
    <glyph glyph-name="uni0483" unicode="&#x483;" horiz-adv-x="0" 
d="M-744 1362v-121h-58v173h481v108h55v-160h-478z" />
    <glyph glyph-name="uni0484" unicode="&#x484;" horiz-adv-x="0" 
d="M-869 1361q52 0 93 14.5t75.5 36.5t65.5 47t63.5 47t69 36.5t81.5 14.5q55 0 99 -18t74.5 -49.5t46.5 -73t16 -87.5v-26h-55v18q0 35 -11 68t-33.5 58.5t-57.5 41t-83 15.5q-40 0 -72.5 -14t-62 -34.5t-59.5 -45t-65.5 -45t-79.5 -34.5t-102 -14h-17v44h14z" />
    <glyph glyph-name="uni0485" unicode="&#x485;" horiz-adv-x="0" 
d="M-638 1500v142h97v-139l64 -126l-36 -28z" />
    <glyph glyph-name="uni0486" unicode="&#x486;" horiz-adv-x="0" 
d="M-562 1349l-36 28l64 126v139h97v-142z" />
    <glyph glyph-name="uni0488" unicode="&#x488;" horiz-adv-x="0" 
d="M392 1267q0 41 14.5 75.5t41.5 59.5t66 39t88 14t88 -14t66.5 -39t42 -59.5t14.5 -75.5h-112q0 20 -5.5 38t-17 32t-30.5 22.5t-46 8.5t-45.5 -8.5t-30 -22.5t-16.5 -32t-5 -38h-113zM983 990q0 41 14.5 75.5t42 59.5t66.5 39t87 14q49 0 88.5 -14t67 -39t42 -59.5
t14.5 -75.5h-113q0 20 -5 38t-17 32t-31 22.5t-46 8.5q-26 0 -44.5 -8.5t-30 -22.5t-16.5 -32t-5 -38h-114zM1170 487q0 41 14.5 75.5t42 59.5t66.5 39t87 14q49 0 88 -14t66.5 -39t42 -59.5t14.5 -75.5h-112q0 20 -5 38t-17 32t-31 22.5t-46 8.5q-26 0 -44.5 -8.5
t-30 -22.5t-17 -32t-5.5 -38h-113zM973 -32q0 41 14.5 75.5t42 59.5t66.5 39t87 14q49 0 88 -14t66.5 -39t42 -59.5t14.5 -75.5h-112q0 20 -5 38t-17 32t-31 22.5t-46 8.5q-26 0 -44.5 -8.5t-30 -22.5t-17 -32t-5.5 -38h-113zM397 -316q0 41 14.5 75.5t41.5 59.5t66 39
t88 14t88 -14t66.5 -39t42 -59.5t14.5 -75.5h-112q0 20 -5.5 38t-17 32t-30.5 22.5t-46 8.5q-26 0 -44.5 -8.5t-30 -22.5t-17 -32t-5.5 -38h-113zM-181 990q0 41 14.5 75.5t42 59.5t66.5 39t88 14t88 -14t66.5 -39t42 -59.5t14.5 -75.5h-112q0 20 -5.5 38t-17 32t-30.5 22.5
t-46 8.5t-45.5 -8.5t-30 -22.5t-16.5 -32t-5 -38h-114zM-357 487q0 41 14.5 75.5t42 59.5t66.5 39t87 14q49 0 88 -14t66.5 -39t42 -59.5t14.5 -75.5h-112q0 20 -5 38t-17 32t-31 22.5t-46 8.5q-26 0 -44.5 -8.5t-30 -22.5t-17 -32t-5.5 -38h-113zM-191 -32q0 41 14.5 75.5
t42 59.5t66.5 39t87 14q49 0 88.5 -14t67 -39t42 -59.5t14.5 -75.5h-113q0 20 -5 38t-17 32t-31 22.5t-46 8.5q-26 0 -44.5 -8.5t-30 -22.5t-16.5 -32t-5 -38h-114z" />
    <glyph glyph-name="uni0489" unicode="&#x489;" horiz-adv-x="0" 
d="M729 -60l11 -14l-122 -339h-96l70 353h137zM534 1126l-12 14l122 338h96l-70 -352h-136zM1212 631l13 12l333 -124v-98l-346 71v139zM48 433l-13 -12l-333 124v98l346 -71v-139zM972 1002l2 16l321 153l68 -68l-294 -200zM288 21l-2 -17l-320 -153l-69 69l294 200z
M148 860l-17 2l-148 326l65 69l198 -299zM1110 161l17 -2l149 -325l-66 -71l-197 299z" />
    <glyph glyph-name="uni048D" unicode="&#x48d;" horiz-adv-x="1080" 
d="M564 1402h-329v-732h345q94 0 166 -25.5t121 -70t74.5 -106t25.5 -133.5q0 -73 -25.5 -134.5t-74.5 -106t-121 -69.5t-166 -25h-399v1402h-204v54h204v166h54v-166h329v-54zM235 616v-562h345q88 0 151.5 23.5t103.5 62.5t59 90t19 107q0 53 -19 103.5t-59 89.5
t-103.5 62.5t-151.5 23.5h-345z" />
    <glyph glyph-name="uni048E" unicode="&#x48e;" horiz-adv-x="1281" 
d="M1085 541l-41 -35l-301 353l41 35zM247 615v-615h-54v1456h455q116 0 204 -30.5t147 -86t89 -134t30 -174.5t-29.5 -173t-88.5 -131t-147 -83t-205 -29h-401zM247 669h401q110 0 189 28.5t129.5 77.5t74 114.5t23.5 139.5q0 77 -23.5 145t-74 118.5t-129.5 80t-189 29.5
h-401v-733z" />
    <glyph glyph-name="uni048F" unicode="&#x48f;" horiz-adv-x="1151" 
d="M962 -63l-44 -33l-250 346l45 32zM999 531q0 -124 -27.5 -225.5t-79.5 -174t-127.5 -112t-171.5 -39.5q-66 0 -122.5 14t-102.5 39t-82.5 59.5t-61.5 75.5v-584h-54v1498h54v-193q26 48 62 87t82 67t101.5 43.5t121.5 15.5q96 0 172 -38t128.5 -109t80 -173t27.5 -230
v-21zM944 552q0 108 -21.5 199t-65 157t-110 103t-155.5 37q-86 0 -148.5 -25t-106 -64.5t-71 -88t-42.5 -95.5v-506q19 -51 51.5 -94t78.5 -74.5t106 -49t134 -17.5q88 0 154 37t109.5 103.5t65 157.5t21.5 199v21z" />
    <glyph glyph-name="uni0490" unicode="&#x490;" horiz-adv-x="1122" 
d="M1055 1401h-54v1h-754v-1402h-54v1456h808v372h54v-427z" />
    <glyph glyph-name="uni0491" unicode="&#x491;" horiz-adv-x="881" 
d="M824 1027h-598v-1027h-54v1082h598v372h54v-427z" />
    <glyph glyph-name="uni0494" unicode="&#x494;" horiz-adv-x="1120" 
d="M1055 1402h-808v-579h238q118 0 220.5 -29.5t178 -96.5t118.5 -174.5t43 -264.5q0 -54 -10.5 -115t-33 -120.5t-58 -114t-84 -96t-112 -66t-142.5 -24.5v51q96 0 168.5 43t120.5 112.5t72.5 156t24.5 173.5q0 137 -39 234.5t-107.5 159t-161 90t-198.5 28.5h-238v-770
h-54v1456h862v-54z" />
    <glyph glyph-name="uni0495" unicode="&#x495;" horiz-adv-x="1009" 
d="M822 1027h-596v-421h172q110 0 205 -23.5t165 -76t110 -137.5t40 -208q1 -50 -14.5 -113t-57 -123.5t-112.5 -109.5t-180 -70l-16 42q96 19 158.5 61t99.5 95t51.5 110.5t16.5 107.5q3 106 -32.5 180.5t-99 121.5t-150 68.5t-184.5 21.5h-172v-553h-54v1082h650v-55z" />
    <glyph glyph-name="uni049C" unicode="&#x49c;" horiz-adv-x="1223" 
d="M1117 1456l-470 -717l546 -739h-71l-530 721h-102v-324h-55v324h-185v-721h-54v1456h54v-682h185v307h55v-307h118l438 682h71z" />
    <glyph glyph-name="uni049D" unicode="&#x49d;" horiz-adv-x="1063" 
d="M960 1082l-353 -530l417 -552h-82l-388 529h-101v-279h-55v279h-172v-529h-55v1082h55v-500h172v268h55v-268h111l318 500h78z" />
    <glyph glyph-name="uni04A0" unicode="&#x4a0;" horiz-adv-x="1632" 
d="M872 711h-223v-711h-54v1402h-501v54h555v-692h238l618 692h71l-644 -726l690 -730h-71z" />
    <glyph glyph-name="uni04A1" unicode="&#x4a1;" horiz-adv-x="1291" 
d="M682 529h-198v-529h-55v1028h-389v54h444v-500h208l429 500h78l-460 -530l523 -552h-81z" />
    <glyph glyph-name="uni04A4" unicode="&#x4a4;" horiz-adv-x="2128" 
d="M249 776h930v680h864v-54h-810v-1402h-54v722h-930v-722h-54v1456h54v-680z" />
    <glyph glyph-name="uni04A5" unicode="&#x4a5;" horiz-adv-x="1505" 
d="M226 583h669v499h540v-55h-485v-1027h-55v529h-669v-529h-54v1082h54v-499z" />
    <glyph glyph-name="uni04A6" unicode="&#x4a6;" horiz-adv-x="2079" 
d="M1217 838h214q118 0 220.5 -29.5t178 -96.5t118.5 -174.5t43 -264.5q0 -54 -10.5 -115t-33 -120.5t-58 -114t-84 -96t-112 -66t-142.5 -24.5v51q96 0 168.5 43t120.5 112.5t72.5 156t24.5 173.5q0 137 -39 234.5t-107.5 159t-161 90t-198.5 28.5h-214v-785h-54v1402h-930
v-1402h-54v1456h1038v-618z" />
    <glyph glyph-name="uni04A7" unicode="&#x4a7;" horiz-adv-x="1709" 
d="M950 606h163q110 0 205 -23.5t165 -76t110 -137.5t40 -208q1 -50 -14.5 -113t-57 -123.5t-112.5 -109.5t-180 -70l-16 42q96 19 158.5 61t99.5 95t51.5 110.5t16.5 107.5q3 106 -32.5 180.5t-99 121.5t-150 68.5t-184.5 21.5h-163v-553h-55v1027h-669v-1027h-54v1082h778
v-476z" />
    <glyph glyph-name="uni04A8" unicode="&#x4a8;" horiz-adv-x="1526" 
d="M1425 -22q-103 0 -193 17.5t-169 49.5q-69 -32 -147.5 -49t-168.5 -17q-148 0 -262.5 54t-192.5 148t-118.5 221.5t-40.5 274.5v242q0 118 32.5 220t92.5 177t143.5 118t185.5 43l4 -54q-93 0 -167.5 -41.5t-127 -111t-80.5 -160.5t-28 -189v-244q0 -136 39 -253.5
t111.5 -204.5t176 -136.5t232.5 -49.5q70 0 132 11t116 32q-84 44 -149.5 105.5t-110.5 135.5t-69 160t-24 180v282q0 115 26.5 211t76 165.5t119.5 108.5t158 39q87 0 159 -39t123 -108.5t79 -165.5t28 -211v-284q0 -198 -76 -345.5t-214 -232.5q66 -23 141.5 -34.5
t162.5 -11.5v-53zM697 655q0 -89 22.5 -171.5t67.5 -154t112 -129.5t155 -97q74 39 130.5 96t95 128t58 154t19.5 174v285q0 99 -22.5 185t-65 149t-105 99t-142.5 36q-78 0 -139 -36.5t-102 -100.5t-62.5 -149.5t-21.5 -182.5v-285z" />
    <glyph glyph-name="uni04A9" unicode="&#x4a9;" horiz-adv-x="1198" 
d="M1125 -12q-80 0 -150.5 14t-132.5 40q-53 -31 -113.5 -47t-129.5 -16q-106 0 -193 42.5t-149 117t-96 175.5t-34 219v94q0 102 24 188.5t67.5 150.5t104.5 100t136 36v-54q-55 0 -105 -31.5t-88.5 -88t-61.5 -133t-23 -166.5v-96q0 -105 28 -196.5t82 -159t131.5 -106
t176.5 -38.5q101 0 184 37q-127 72 -197 194t-70 283v108q0 98 20.5 180t58.5 141t91 92t118 33t118.5 -36t91.5 -98.5t59 -148t21 -184.5v-102q0 -144 -52 -261.5t-146 -192.5q51 -17 108 -26.5t121 -9.5v-54zM570 545q0 -154 70.5 -268.5t198.5 -175.5q49 32 86.5 77.5
t63 101t38.5 119.5t13 133v105q0 84 -17 159t-48 130.5t-74.5 88t-96.5 32.5q-57 0 -100.5 -30t-73.5 -82.5t-45 -124t-15 -153.5v-112z" />
    <glyph glyph-name="uni04B4" unicode="&#x4b4;" horiz-adv-x="1720" 
d="M440 1401h-422v54h422v1h54v-1h468v-54h-468v-1347h930v1402h54v-1402h133v-405h-54v351h-1117v1401z" />
    <glyph glyph-name="uni04B5" unicode="&#x4b5;" horiz-adv-x="1305" 
d="M353 1028h-327v54h708v-54h-327v-974h669v1028h55v-1028h91v-375h-54v321h-815v1028z" />
    <glyph glyph-name="uni04B8" unicode="&#x4b8;" horiz-adv-x="1325" 
d="M710 401h-55v682h55v-682zM1130 1456v-1456h-54v719q-94 -26 -196.5 -43.5t-205.5 -17.5q-115 0 -204.5 24t-150.5 77t-92.5 138.5t-31.5 207.5v351h54v-351q0 -105 27.5 -179.5t81.5 -122t133.5 -69.5t182.5 -22q102 0 201.5 15.5t200.5 44.5v684h54z" />
    <glyph glyph-name="uni04B9" unicode="&#x4b9;" horiz-adv-x="1122" 
d="M641 243h-56v556h56v-556zM950 0h-54v522q-31 -15 -70.5 -29.5t-81.5 -25.5t-84.5 -18t-78.5 -7q-105 0 -182.5 17.5t-127.5 63t-74.5 124t-24.5 201.5v234h54v-234q0 -106 20.5 -174t63.5 -107.5t110.5 -55t160.5 -15.5q41 2 85.5 9t87 17.5t79.5 23.5t63 27v509h54
v-1082z" />
    <glyph glyph-name="uni04BA" unicode="&#x4ba;" horiz-adv-x="1325" 
d="M195 0v1456h54v-719q94 26 196.5 43.5t205.5 17.5q115 0 204.5 -24t150.5 -77.5t92.5 -138.5t31.5 -207v-351h-54v351q0 105 -27.5 179.5t-81.5 122t-133.5 69.5t-182.5 22q-102 0 -201.5 -15.5t-200.5 -44.5v-684h-54z" />
    <glyph glyph-name="uni04BC" unicode="&#x4bc;" horiz-adv-x="1509" 
d="M886 -20q-140 0 -247.5 42.5t-181 119.5t-111 183t-37.5 234v204q-143 11 -221 89.5t-78 221.5h55q0 -115 61.5 -180.5t182.5 -75.5v53q0 133 40 244t111 191t168.5 124.5t212.5 44.5q122 0 221.5 -42.5t170 -121.5t108.5 -192t38 -253v-103h-1016v-204
q0 -110 30.5 -205.5t94 -166.5t162.5 -112t236 -41q142 0 250 41t186 110l30 -43q-34 -31 -76.5 -60t-98 -51.5t-127 -36.5t-164.5 -14zM363 818h962v51q0 115 -32 216t-93.5 175t-152 117t-206.5 43q-112 0 -201 -43t-150.5 -117.5t-94 -174.5t-32.5 -214v-53z" />
    <glyph glyph-name="uni04BD" unicode="&#x4bd;" horiz-adv-x="1203" 
d="M701 -20q-99 0 -185 40t-150.5 111.5t-101.5 170t-37 216.5v44v24q-101 17 -157 84t-56 182h55q0 -89 40.5 -143t121.5 -69q12 103 51.5 188t99.5 146t136.5 94.5t162.5 33.5q90 0 165.5 -33.5t130 -94.5t85 -146t30.5 -188v-63h-811v-15v-44q0 -101 32 -189.5t88.5 -154
t133.5 -103.5t166 -38q46 0 89.5 7t83.5 24t77 45.5t71 72.5l38 -27q-27 -39 -62 -71t-79.5 -55t-98.5 -36t-119 -13zM296 631h742v13q0 81 -25.5 154.5t-72 129t-112.5 88t-147 32.5t-149.5 -32t-120 -87.5t-84 -131t-42.5 -162.5h11v-4z" />
    <glyph glyph-name="uni04C3" unicode="&#x4c3;" horiz-adv-x="1223" 
d="M541 774h64q118 0 220.5 -29.5t178 -96.5t118.5 -174.5t43 -264.5q0 -54 -10.5 -115t-33 -120.5t-58 -114t-84 -96t-112 -66t-142.5 -24.5v51q96 0 168.5 43t120.5 112.5t72.5 156t24.5 173.5q0 137 -39 234.5t-107.5 159t-161 90t-198.5 28.5h-355v-721h-54v1456h54
v-682h218l578 682h71z" />
    <glyph glyph-name="uni04C4" unicode="&#x4c4;" horiz-adv-x="1046" 
d="M481 583q102 -5 188.5 -31.5t150.5 -79.5t100 -136t36 -200q1 -33 -5.5 -72.5t-23 -81t-44 -82.5t-68 -76.5t-96 -62.5t-127.5 -41l-17 42q96 19 159 61t99.5 95t51.5 110.5t17 107.5q3 106 -32.5 181t-99 122t-150 69t-184.5 22h-4l-1 -1h-205v-529h-55v1082h55v-498
h180l457 498h78z" />
    <glyph glyph-name="uni04C7" unicode="&#x4c7;" horiz-adv-x="1428" 
d="M249 1456v-707h930v707h54v-1545q0 -170 -75 -259t-209 -89q-31 0 -57.5 5t-55.5 15l14 52q15 -6 43 -12t56 -6q110 0 170 76t60 218v784h-930v-695h-54v1456h54z" />
    <glyph glyph-name="uni04C8" unicode="&#x4c8;" 
d="M226 1082v-499h669v499h55v-1171q0 -170 -75.5 -259t-210.5 -89q-31 0 -57 5t-55 15l13 52q15 -6 43 -12t56 -6q112 0 171.5 76t59.5 218v618h-669v-529h-54v1082h54z" />
    <glyph glyph-name="uni04D8" unicode="&#x4d8;" horiz-adv-x="1452" 
d="M728 1476q145 0 257 -47.5t188 -132t115 -202.5t39 -259v-172q0 -151 -43 -276.5t-119.5 -216t-181.5 -140.5t-229 -50q-136 0 -246.5 42.5t-188.5 121.5t-120.5 191.5t-42.5 252.5v123h1117v124q0 122 -31.5 229t-98 186.5t-169.5 125.5t-246 46q-147 0 -260.5 -43
t-194.5 -111l-30 43q36 31 80 60.5t101.5 52.5t132 37.5t171.5 14.5zM754 34q121 0 217 48.5t162.5 133t102.5 198t37 242.5h-1063v-72q0 -115 36 -215.5t105 -174.5t170.5 -117t232.5 -43z" />
    <glyph glyph-name="uni04E0" unicode="&#x4e0;" horiz-adv-x="1166" 
d="M1012 1456l3 -68l-481 -561h39q220 0 327 -114t107 -327q0 -97 -32.5 -172.5t-90.5 -127.5t-137.5 -79.5t-173.5 -27.5q-83 0 -163.5 25.5t-144.5 77.5t-103.5 132t-39.5 190h56q0 -81 28.5 -149t80 -117.5t124.5 -77t162 -27.5q91 0 161.5 24t119 69t74 110t25.5 146
q0 105 -25 180.5t-73.5 123.5t-120.5 70.5t-165 22.5h-101v55l486 568h-811v54h869z" />
    <glyph glyph-name="uni04E1" unicode="&#x4e1;" horiz-adv-x="1166" 
d="M955 1027h-812v55h869l3 -68l-482 -562h10q109 0 195.5 -29t146 -85t91 -138.5t31.5 -188.5q0 -96 -32.5 -171.5t-90.5 -127.5t-137.5 -79.5t-173.5 -27.5q-83 0 -163.5 25.5t-144.5 77.5t-103.5 132t-39.5 189h56q0 -81 28.5 -148.5t80 -117t124.5 -77t162 -27.5
q91 0 161.5 24t119 69t74 109.5t25.5 145.5q0 106 -30 181t-84 123t-130.5 70.5t-169.5 22.5h-71v56z" />
    <glyph glyph-name="uni04FA" unicode="&#x4fa;" horiz-adv-x="1122" 
d="M1055 1402h-808v-1402h-54v1456h862v-54zM580 793h-587v54h587v-54zM287 118v-207q0 -170 -75 -259t-210 -89q-31 0 -57 5t-55 15l13 52q16 -6 43.5 -12.5t55.5 -6.5q112 0 171.5 76.5t59.5 218.5v207h54z" />
    <glyph glyph-name="uni04FB" unicode="&#x4fb;" horiz-adv-x="843" 
d="M822 1027h-596v-1027h-54v1082h650v-55zM588 589h-587v54h587v-54zM279 118v-207q0 -170 -75 -259t-210 -89q-31 0 -57 5t-55 15l13 52q16 -6 43.5 -12.5t55.5 -6.5q112 0 171.5 76.5t59.5 218.5v207h54z" />
    <glyph glyph-name="uni0500" unicode="&#x500;" horiz-adv-x="1077" 
d="M904 808v648h54v-1456h-424q-117 0 -205 30.5t-147 84.5t-89 128t-30 161t29.5 161t89 128t147.5 84.5t205 30.5h370zM904 54v700h-370q-111 0 -189.5 -29.5t-129 -78.5t-74 -111.5t-23.5 -128.5q0 -69 23.5 -132.5t74 -112.5t129 -78t189.5 -29h370z" />
    <glyph glyph-name="uni0502" unicode="&#x502;" horiz-adv-x="1514" 
d="M534 0q-117 0 -205 30.5t-147 84.5t-89 128t-30 161t29.5 161t89 128t147.5 84.5t205 30.5h370v648h54v-1405l158 1q138 2 210.5 90t76.5 240q2 88 -14.5 181.5t-46.5 181.5h50q26 -88 46.5 -179.5t18.5 -183.5q-2 -97 -30.5 -168.5t-75 -119t-107.5 -71t-128 -23.5h-582
zM904 54v700h-370q-111 0 -189.5 -29.5t-129 -78.5t-74 -111.5t-23.5 -128.5q0 -69 23.5 -132.5t74 -112.5t129 -78t189.5 -29h370z" />
    <glyph glyph-name="uni0503" unicode="&#x503;" horiz-adv-x="1754" 
d="M122 542q0 128 27.5 231.5t80 176.5t128.5 112.5t172 39.5q66 0 121.5 -15.5t100.5 -43.5t80.5 -67.5t61.5 -87.5v672h55v-1215q0 -81 15.5 -139.5t45 -97t71.5 -57t95 -18.5q84 1 148 36t108 99.5t67 156t25 204.5q2 100 -18.5 201t-49.5 201l56 1q26 -98 47.5 -199
t19.5 -204q-2 -139 -32.5 -242.5t-84 -171.5t-126.5 -102t-160 -34q-101 -2 -168.5 50t-95.5 171q-23 -47 -59 -87.5t-84 -70t-108.5 -46.5t-132.5 -17q-96 0 -171.5 38.5t-127.5 109t-79.5 170.5t-27.5 224v21zM894 773q-15 48 -41.5 96.5t-69.5 88.5t-105 65t-149 25
q-89 0 -155 -38.5t-109.5 -106.5t-65 -160.5t-21.5 -200.5v-21q0 -108 21.5 -198t64.5 -154.5t108.5 -100t154.5 -35.5q77 0 138 19t106.5 52.5t77 79.5t49.5 99q-2 14 -3 29.5t-1 32.5v428z" />
    <glyph glyph-name="uni0504" unicode="&#x504;" horiz-adv-x="1612" 
d="M758 391q0 72 -18 132t-56.5 102.5t-97.5 66t-141 23.5h-191v55h196q195 0 295.5 84t100.5 252q0 67 -24.5 122t-77.5 93.5t-136 59.5t-200 21h-359v54h359q240 0 366 -89t126 -263q0 -69 -20 -131t-59.5 -111.5t-97 -83.5t-132.5 -47q63 -16 105 -47.5t68 -75t37 -98.5
t11 -117v-89q0 -60 16 -110t45.5 -85.5t72 -55.5t94.5 -20q59 1 109.5 21t91 54.5t72 82t52.5 102t32.5 115t12.5 121.5q2 100 -19.5 201.5t-51.5 201.5h57q13 -49 25.5 -98.5t22.5 -100t15.5 -102t4.5 -102.5q-2 -118 -33.5 -218.5t-87 -174t-132.5 -115.5t-171 -42
q-63 -2 -114 16t-87.5 57.5t-57 102t-23.5 149.5v87z" />
    <glyph glyph-name="uni0505" unicode="&#x505;" horiz-adv-x="1313" 
d="M681 213q0 -42 8 -75t29.5 -56.5t58 -36t92.5 -12.5q74 1 130.5 28t95.5 76.5t59 120.5t22 161q2 78 -17.5 159.5t-60.5 159.5h65q26 -78 47.5 -158t19.5 -161q-2 -113 -32 -195.5t-79.5 -137t-114 -81t-135.5 -26.5q-59 -2 -103 10.5t-74 40.5t-46.5 73.5t-18.5 110.5
v86q0 99 -69.5 154t-202.5 58h-224l-2 51h225q70 0 124.5 17.5t92 47.5t57 70t19.5 86q0 51 -23 96t-66 79t-105.5 53.5t-140.5 19.5h-262l-6 50h268q93 0 165.5 -21t122.5 -60t76 -94t26 -123q0 -83 -49.5 -150.5t-143.5 -99.5q48 -14 81 -37t53.5 -53t29 -66t8.5 -77v-88
v0z" />
    <glyph glyph-name="uni0506" unicode="&#x506;" horiz-adv-x="1087" 
d="M227 683v54h166q120 0 203 28t134 74t73.5 105t22.5 121q0 163 -104.5 249.5t-318.5 86.5h-289v54h289q229 0 353 -98.5t124 -291.5q0 -58 -19 -114.5t-56 -104.5t-91.5 -83.5t-125.5 -51.5q82 -14 138 -45t90.5 -75t49 -100t14.5 -120v-137q0 -63 16 -118t56 -92v-25
h-53q-35 42 -54 102t-19 135v133q0 73 -25.5 131.5t-75 99t-122 62t-167.5 21.5h-209zM957 -35q0 -93 -29 -162t-77 -120l-37 32q45 58 67 114.5t22 133.5v134h54v-132z" />
    <glyph glyph-name="uni0507" unicode="&#x507;" horiz-adv-x="1021" 
d="M204 494l-2 54h235q90 0 153 15.5t102.5 46t57 75t17.5 101.5q0 58 -17.5 102.5t-57 75.5t-102.5 47t-153 16h-333l4 55h329q187 0 285.5 -75t98.5 -222q0 -46 -11 -88t-35 -76.5t-61.5 -60.5t-89.5 -41q55 -13 92 -36.5t59.5 -55.5t32.5 -71.5t10 -84.5v-99
q0 -47 3.5 -86.5t17.5 -65.5v-20h-59q-6 15 -9.5 39t-5 49.5t-1.5 48.5v36v96q0 106 -74.5 165.5t-216.5 59.5h-269zM870 -5q0 -93 -29 -162t-77 -120l-37 32q45 58 67 114.5t22 133.5v134h54v-132z" />
    <glyph glyph-name="uni0508" unicode="&#x508;" horiz-adv-x="1975" 
d="M1207 1456v-1111q0 -81 15.5 -139.5t45 -97t71.5 -57t95 -18.5q84 1 148 36t108 99.5t67 156t25 204.5q1 100 -19 201t-49 201l56 1q26 -98 47.5 -199t19.5 -204q-2 -139 -32.5 -242.5t-84 -171.5t-126.5 -102t-160 -34q-63 -2 -114 18.5t-87 65t-56.5 114.5t-23.5 168
v1057h-652v-634q0 -194 -20.5 -338.5t-66.5 -240t-119 -142.5t-178 -47h-53v54h41q91 0 155.5 40.5t106 126.5t61 221.5t19.5 325.5v688h760z" />
    <glyph glyph-name="uni0509" unicode="&#x509;" horiz-adv-x="1643" 
d="M865 1027h-498v-405q0 -308 -64 -465t-207 -157h-57v53h45q60 0 103.5 34t71 104t41 177.5t13.5 253.5v460h606v-737q0 -81 14.5 -139.5t41.5 -97t65.5 -57t85.5 -18.5q79 1 139.5 30t102 82.5t63 129t23.5 169.5q2 95 -18.5 190.5t-49.5 190.5l55 1q13 -47 25.5 -94.5
t22.5 -95t15.5 -96t4.5 -96.5q-2 -118 -31 -205.5t-80 -145t-120.5 -86t-151.5 -28.5q-59 -2 -106 18.5t-80.5 65t-52.5 114.5t-22 168v682z" />
    <glyph glyph-name="uni050A" unicode="&#x50a;" horiz-adv-x="1947" 
d="M1123 1456v-1111q0 -81 16 -139.5t45.5 -97t72 -57t94.5 -18.5q84 1 148 36t108 99.5t67 156t25 204.5q1 100 -19.5 201t-49.5 201l56 1q13 -49 25.5 -98.5t22 -100t15 -102t4.5 -102.5q-2 -139 -32.5 -242.5t-84 -171.5t-126.5 -102t-159 -34q-64 -2 -115 18.5t-87 65
t-56.5 114.5t-23.5 168v348h-805v-693h-54v1456h54v-709h805v709h54z" />
    <glyph glyph-name="uni050B" unicode="&#x50b;" horiz-adv-x="1687" 
d="M865 519h-654v-519h-54v1082h54v-510h654v510h54v-737q0 -81 14 -139.5t41 -97t65.5 -57t86.5 -18.5q79 1 139.5 30t102 82.5t63 129t23.5 169.5q2 95 -19 190.5t-50 190.5l56 1q13 -47 25.5 -94.5t22.5 -95t15.5 -96t4.5 -96.5q-2 -118 -31 -205.5t-80 -145t-120.5 -86
t-151.5 -28.5q-59 -2 -106 18.5t-80.5 65t-52.5 114.5t-22 168v174z" />
    <glyph glyph-name="uni050C" unicode="&#x50c;" horiz-adv-x="1260" 
d="M692 -21q-120 0 -219.5 47t-170 129.5t-109.5 195.5t-39 246v262q0 133 39 246t109.5 195.5t170 129.5t219.5 47q102 0 179.5 -16.5t137.5 -48.5l-21 -57q-65 33 -136.5 50.5t-159.5 17.5q-114 0 -204 -44.5t-152.5 -121t-95 -178.5t-32.5 -218v-264q0 -117 32.5 -219.5
t95 -179t152.5 -121t204 -44.5q99 1 174.5 28.5t127 78t79 123t29.5 162.5t-13 181t-37 180h58q19 -88 33.5 -178.5t12.5 -182.5q-2 -113 -40.5 -196.5t-102 -139t-147 -83t-174.5 -27.5z" />
    <glyph glyph-name="uni050D" unicode="&#x50d;" horiz-adv-x="1043" 
d="M588 33q90 1 150.5 23t97.5 58.5t53.5 84.5t17.5 102q0 57 -6.5 118t-21.5 118h55q11 -58 19.5 -117.5t7.5 -118.5q-2 -82 -30.5 -142.5t-78 -100.5t-117.5 -59.5t-147 -19.5q-110 0 -194.5 44t-142 118.5t-87.5 172.5t-30 206v42q0 108 28.5 206t84 172t136 118
t184.5 44q90 0 155 -13.5t106 -45.5l-24 -49q-46 27 -106.5 40.5t-130.5 13.5q-101 0 -172.5 -43t-117.5 -112t-67.5 -156t-21.5 -175v-42q0 -89 24.5 -176t74.5 -156t125 -112t176 -43z" />
    <glyph glyph-name="uni050E" unicode="&#x50e;" horiz-adv-x="1443" 
d="M582 1402h-551v54h1152v-54h-545v-1057q-1 -81 15 -139.5t45.5 -97t71.5 -57t95 -18.5q84 1 148 36t108 99.5t67 156t25 204.5q1 100 -19.5 201t-49.5 201l56 1q26 -98 47.5 -199t19.5 -204q-2 -139 -33 -242.5t-84 -171.5t-126 -102t-159 -34q-63 -2 -114 18.5t-87.5 65
t-57.5 114.5t-24 168v1057z" />
    <glyph glyph-name="uni050F" unicode="&#x50f;" horiz-adv-x="1302" 
d="M481 1029h-416v53h907v-53h-436v-684q0 -81 15.5 -139.5t45.5 -97t72 -57t95 -18.5q79 1 139.5 30.5t102 83t63 129.5t23.5 171q1 96 -19.5 191.5t-49.5 191.5l56 1q13 -47 25.5 -95t22.5 -96t15 -96t4 -97q-2 -119 -31 -206.5t-80 -146t-120 -87t-151 -28.5
q-63 -2 -114 18.5t-87.5 65t-57.5 114.5t-24 168v684z" />
    <glyph glyph-name="uni0510" unicode="&#x510;" horiz-adv-x="1325" 
d="M138 386q0 143 82 234t255 125q-77 20 -136 54t-99 78t-60 96.5t-20 109.5q0 97 37.5 170.5t107.5 123t168.5 75t220.5 25.5q104 0 197 -28t163 -80t111 -126.5t41 -167.5h-54q0 81 -35.5 145.5t-97.5 109.5t-145.5 69t-179.5 24q-125 0 -216 -25t-149.5 -70
t-86.5 -106.5t-28 -134.5t27.5 -131.5t86.5 -99.5t150.5 -63t220.5 -22h183v-56h-183q-124 0 -218.5 -18.5t-158.5 -58.5t-97 -103.5t-33 -152.5q0 -81 33 -145.5t97 -109.5t157.5 -69t214.5 -24q108 0 196 27.5t150.5 76.5t97 117t34.5 149h54q0 -73 -21.5 -133t-58.5 -107
t-88 -81.5t-110 -57.5t-124 -34t-130 -11q-122 0 -224 27t-176 79t-115 127.5t-41 172.5z" />
    <glyph glyph-name="uni2000" unicode="&#x2000;" horiz-adv-x="1044" 
 />
    <glyph glyph-name="uni2001" unicode="&#x2001;" horiz-adv-x="2089" 
 />
    <glyph glyph-name="uni2002" unicode="&#x2002;" horiz-adv-x="1044" 
 />
    <glyph glyph-name="uni2003" unicode="&#x2003;" horiz-adv-x="2089" 
 />
    <glyph glyph-name="uni2004" unicode="&#x2004;" horiz-adv-x="697" 
 />
    <glyph glyph-name="uni2005" unicode="&#x2005;" horiz-adv-x="522" 
 />
    <glyph glyph-name="uni2006" unicode="&#x2006;" horiz-adv-x="348" 
 />
    <glyph glyph-name="uni2007" unicode="&#x2007;" horiz-adv-x="1151" 
 />
    <glyph glyph-name="uni2008" unicode="&#x2008;" horiz-adv-x="560" 
 />
    <glyph glyph-name="uni2009" unicode="&#x2009;" horiz-adv-x="418" 
 />
    <glyph glyph-name="uni200A" unicode="&#x200a;" horiz-adv-x="209" 
 />
    <glyph glyph-name="uni200B" unicode="&#x200b;" horiz-adv-x="0" 
 />
    <glyph glyph-name="endash" unicode="&#x2013;" horiz-adv-x="1324" 
d="M1158.61 721h-1002.01v54h1002.01v-54z" />
    <glyph glyph-name="emdash" unicode="&#x2014;" horiz-adv-x="1561" 
d="M1445.78 721h-1335.98v54h1335.98v-54z" />
    <glyph glyph-name="underscoredbl" unicode="&#x2017;" horiz-adv-x="923" 
d="M923 -287h-846v54h846v-54zM923 -54h-846v54h846v-54z" />
    <glyph glyph-name="quoteleft" unicode="&#x2018;" horiz-adv-x="320" 
d="M101 1272q0 93 29 162t77 120l37 -32q-23 -29 -39.5 -57t-27.5 -57.5t-16.5 -62t-5.5 -71.5v-106h-54v104z" />
    <glyph glyph-name="quoteright" unicode="&#x2019;" horiz-adv-x="320" 
d="M220 1433q0 -93 -29 -162t-77 -120l-37 32q45 58 67 114.5t22 133.5v105h54v-103z" />
    <glyph glyph-name="quotesinglbase" unicode="&#x201a;" horiz-adv-x="300" 
d="M190 100q0 -93 -29 -162t-77 -120l-37 32q45 58 67 114.5t22 133.5v130h54v-128z" />
    <glyph glyph-name="quotereversed" unicode="&#x201b;" horiz-adv-x="320" 
d="M100.014 1433q0 -93 28.998 -162t76.9951 -120l36.998 32q-44.9971 58 -66.9961 114.5t-21.999 133.5v105h-53.9961v-103z" />
    <glyph glyph-name="quotedblleft" unicode="&#x201c;" horiz-adv-x="500" 
d="M96 1272q0 93 29 162t77 120l37 -32q-23 -29 -39.5 -57t-27.5 -57.5t-16.5 -62t-5.5 -71.5v-106h-54v104zM281 1272q0 93 29 162t77 120l37 -32q-23 -29 -39.5 -57t-27.5 -57.5t-16.5 -62t-5.5 -71.5v-106h-54v104z" />
    <glyph glyph-name="quotedblright" unicode="&#x201d;" horiz-adv-x="502" 
d="M220 1433q0 -93 -29 -162t-77 -120l-37 32q45 58 67 114.5t22 133.5v105h54v-103zM402 1433q0 -93 -29 -162t-77 -120l-37 32q45 58 67 114.5t22 133.5v105h54v-103z" />
    <glyph glyph-name="quotedblbase" unicode="&#x201e;" horiz-adv-x="481" 
d="M190 100q0 -93 -29 -162t-77 -120l-37 32q45 58 67 114.5t22 133.5v130h54v-128zM361 100q0 -93 -29 -162t-77 -120l-37 32q45 58 67 114.5t22 133.5v130h54v-128z" />
    <glyph glyph-name="dagger" unicode="&#x2020;" horiz-adv-x="1126" 
d="M1055 1024h-461v-1024h-54v1024h-475v58h475v374h54v-374h461v-58z" />
    <glyph glyph-name="daggerdbl" unicode="&#x2021;" horiz-adv-x="1141" 
d="M1071 0h-481v-416h-55v416h-453v54h453v973h-453v55h453v374h55v-374h481v-55h-481v-973h481v-54z" />
    <glyph glyph-name="bullet" unicode="&#x2022;" horiz-adv-x="635" 
d="M155 773q0 34 11.5 63.5t33 51t52.5 33.5t69 12q39 0 70 -12t53 -33.5t33.5 -51t11.5 -63.5v-70q0 -34 -11.5 -63t-33.5 -50t-52.5 -33t-69.5 -12t-69.5 12t-52.5 33t-33.5 50t-11.5 63v70z" />
    <glyph glyph-name="uni2025" unicode="&#x2025;" horiz-adv-x="893" 
d="M185 49q0 23 16 39.5t39 16.5t39.5 -16.5t16.5 -39.5t-16.5 -39t-39.5 -16t-39 16t-16 39zM569 49q0 23 16 39.5t39 16.5t39.5 -16.5t16.5 -39.5t-16.5 -39t-39.5 -16t-39 16t-16 39z" />
    <glyph glyph-name="ellipsis" unicode="&#x2026;" horiz-adv-x="1255" 
d="M185 49q0 23 16 39.5t39 16.5t39.5 -16.5t16.5 -39.5t-16.5 -39t-39.5 -16t-39 16t-16 39zM569 49q0 23 16 39.5t39 16.5t39.5 -16.5t16.5 -39.5t-16.5 -39t-39.5 -16t-39 16t-16 39zM938 49q0 23 16 39.5t39 16.5t39.5 -16.5t16.5 -39.5t-16.5 -39t-39.5 -16t-39 16
t-16 39z" />
    <glyph glyph-name="perthousand" unicode="&#x2030;" horiz-adv-x="2034" 
d="M870 357q0 61 19.5 116t55 95.5t85.5 64.5t110 24q45 0 83.5 -13t69.5 -36.5t54.5 -55.5t37.5 -71q16 39 41 71t57 55.5t71.5 36.5t83.5 13q61 0 111.5 -24t86 -64.5t55 -95.5t19.5 -116v-78q0 -62 -19.5 -116.5t-55 -95t-85 -64.5t-110.5 -24q-45 0 -84.5 13t-72 36.5
t-57.5 55.5t-41 71q-14 -39 -37 -71t-54 -55.5t-69 -36.5t-83 -13q-61 0 -111 24t-86 64.5t-55.5 95t-19.5 116.5v78zM115 1176q0 62 19.5 116.5t55 95.5t85.5 65t111 24t111 -24t86 -65t55.5 -95.5t19.5 -116.5v-77q0 -61 -19.5 -115.5t-55 -95t-85 -64.5t-110.5 -24
q-62 0 -112 24t-86 64.5t-55.5 95t-19.5 115.5v77zM925 279q0 -46 13 -90t40 -78.5t67.5 -55.5t96.5 -21q55 0 95.5 21t67.5 55.5t40 78.5t13 90v78q0 50 -13.5 94.5t-40.5 78t-68 53t-96 19.5q-53 0 -93.5 -19.5t-67.5 -53t-40.5 -78t-13.5 -94.5v-78zM1413 279
q0 -46 13 -90t39.5 -78.5t67.5 -55.5t97 -21q55 0 95.5 21t66.5 55.5t39 78.5t13 90v78q0 50 -13 94.5t-39.5 78t-67.5 53t-96 19.5q-54 0 -94.5 -19.5t-67 -53t-40 -78t-13.5 -94.5v-78zM170 1099q0 -45 13 -89t40 -78.5t68 -55.5t97 -21q55 0 95.5 21t67 55.5t39.5 78
t13 89.5v77q0 46 -13 90.5t-40 79t-68 55.5t-96 21q-54 0 -94.5 -21t-67.5 -55.5t-40.5 -79t-13.5 -90.5v-77zM418 131l-45 31l711 1138l45 -31z" />
    <glyph glyph-name="guilsinglleft" unicode="&#x2039;" horiz-adv-x="604" 
d="M179 560l294 -379h-70l-295 370v19l295 370h70z" />
    <glyph glyph-name="guilsinglright" unicode="&#x203a;" horiz-adv-x="604" 
d="M176 940l294 -380v-19l-294 -370h-70l293 379l-293 390h70z" />
    <glyph glyph-name="fraction" unicode="&#x2044;" horiz-adv-x="905" 
d="M110 131l-45 31l711 1138l45 -31z" />
    <glyph glyph-name="uni2074" unicode="&#x2074;" horiz-adv-x="728" 
d="M542 922h147v-49h-147v-204h-53v204h-423l-1 32l417 553h60v-536zM135 922h354v474l-44 -71z" />
    <glyph glyph-name="nsuperior" unicode="&#x207f;" horiz-adv-x="861" 
d="M168 1456l9 -156q41 77 109.5 121.5t160.5 44.5q67 0 121.5 -17.5t92 -55t58 -95.5t20.5 -139v-508h-53v514q0 70 -17 118.5t-48.5 78t-75.5 42.5t-98 13t-98 -16.5t-77.5 -45.5t-57 -70t-35.5 -90v-544h-55v805h44z" />
    <glyph glyph-name="lira" unicode="&#x20a4;" horiz-adv-x="1150" 
d="M726 484h-361l5 -148q4 -194 -67 -282h757l1 -54h-962v54h120q27 8 46 36t30.5 68t16.5 86.5t4 91.5l-5 148h-209v55h208l-6 201h-202v56h200l-7 243q0 103 26 184.5t74 137.5t115.5 85.5t150.5 29.5q90 0 160 -28.5t117.5 -79.5t72 -122.5t24.5 -156.5h-54
q0 88 -25.5 151.5t-69 103.5t-101.5 59t-124 19q-72 0 -130 -25t-98.5 -73.5t-62 -120t-21.5 -164.5l7 -243h370v-56h-368l6 -201h362v-55z" />
    <glyph glyph-name="peseta" unicode="&#x20a7;" horiz-adv-x="1670" 
d="M257 605v-605h-54v1456h313q117 0 205 -32t147 -89t89 -135t30 -169q0 -92 -29.5 -170t-89 -135t-147.5 -89t-205 -32h-259zM257 659h259q111 0 190 31.5t129 83t73.5 118t23.5 137.5q0 73 -23.5 140.5t-73.5 119t-129 82.5t-190 31h-259v-743zM1227 1374v-292h246v-55
h-246v-768q0 -71 13 -115t35.5 -68.5t52 -33t62.5 -8.5q31 0 55 2.5t52 6.5l9 -51q-11 -4 -26 -6t-31 -3.5t-31 -2t-25 -0.5q-52 0 -93 13t-69.5 45t-43.5 86t-15 135v768h-200v55h200v292h55z" />
    <glyph glyph-name="Euro" unicode="&#x20ac;" 
d="M786 584h-455v-50q0 -123 34 -216.5t97 -156.5t151.5 -95.5t198.5 -32.5q58 0 113.5 8.5t106.5 25.5v-57q-51 -15 -107 -23t-113 -8q-118 0 -216.5 35.5t-169 105t-110 173.5t-39.5 241v50h-205v55h205v191h-205v56h205v36q0 137 39 240.5t109.5 173.5t168.5 105t216 35
q58 0 111.5 -8.5t110.5 -22.5v-58q-51 16 -107 25.5t-115 9.5q-110 0 -198.5 -31t-150.5 -93t-96 -155.5t-34 -218.5v-38h455v-56h-455v-191h455v-55z" />
    <glyph glyph-name="uni2105" unicode="&#x2105;" horiz-adv-x="1501" 
d="M636 1014q0 -44 -18 -82.5t-50.5 -68t-78 -46.5t-101.5 -17q-57 0 -107 24t-87 64.5t-58.5 95t-21.5 115.5v77q0 62 21.5 116.5t58.5 95.5t86.5 65t105.5 24t102 -17t79 -46.5t51 -69t18 -83.5h-55q0 30 -12 59t-36 51.5t-61 36.5t-86 14t-89 -21t-68.5 -55.5t-44 -79
t-15.5 -90.5v-77q0 -45 15 -89t43.5 -78.5t69 -55.5t91.5 -21q49 0 85.5 14.5t60.5 37t35.5 51t11.5 56.5h55zM870 357q0 61 19.5 116t55 95.5t85.5 64.5t111 24t111.5 -24t86 -64.5t55 -95.5t19.5 -116v-78q0 -62 -19.5 -116.5t-55 -95t-85 -64.5t-110.5 -24q-62 0 -112 24
t-86 64.5t-55.5 95t-19.5 116.5v78zM925 279q0 -46 13 -90t40 -78.5t68 -55.5t97 -21q55 0 95.5 21t67 55.5t39.5 78.5t13 90v78q0 50 -13 94.5t-40 78t-68 53t-96 19.5q-54 0 -94.5 -19.5t-67.5 -53t-40.5 -78t-13.5 -94.5v-78zM420 131l-45 31l711 1138l45 -31z" />
    <glyph glyph-name="uni2113" unicode="&#x2113;" horiz-adv-x="932" 
d="M690 -21q-83 0 -145 32t-103 91.5t-61 143t-20 185.5v73q-63 -29 -133.5 -44.5t-149.5 -15.5v53q82 0 152.5 17t130.5 47v597q0 89 15 159.5t42.5 119t67.5 74.5t91 26q43 0 79 -22t62.5 -62.5t41 -99.5t14.5 -132v-32q0 -95 -23.5 -190.5t-69.5 -182.5t-112.5 -160
t-153.5 -124v-101q0 -75 13.5 -146.5t46 -127.5t85 -90t130.5 -34v-54zM415 592q79 51 136.5 122.5t95 151.5t55.5 163t18 158v34q0 134 -40 198t-103 64q-80 0 -121 -82.5t-41 -242.5v-566z" />
    <glyph glyph-name="uni2116" unicode="&#x2116;" horiz-adv-x="2071" 
d="M1921 453h-580v54h580v-54zM1313 1137q0 73 21 134.5t60.5 106t95.5 69.5t127 25t127.5 -25t96 -69.5t60.5 -106t21 -134.5v-117q0 -73 -21 -134.5t-60 -105.5t-95.5 -69t-126.5 -25q-71 0 -128 25t-96.5 69t-60.5 105.5t-21 134.5v117zM1367 1020q0 -58 14.5 -109
t45.5 -89t78.5 -60t113.5 -22q63 0 110 22t78 60t46.5 89t15.5 109v117q0 58 -15.5 109t-47 89t-78.5 60.5t-111 22.5q-63 0 -110 -22.5t-78 -60.5t-46.5 -89t-15.5 -109v-117zM1091 0h-54l-790 1354v-1354h-55v1456h55l790 -1351v1351h54v-1456z" />
    <glyph glyph-name="trademark" unicode="&#x2122;" horiz-adv-x="1247" 
d="M1028 1356l-164 -437h-52l-164 451v-451h-55v537h69l176 -459l176 459h69v-537h-55v437zM507 1399h-170v-480h-56v480h-170v57h396v-57z" />
    <glyph glyph-name="estimated" unicode="&#x212e;" horiz-adv-x="1293" 
d="M1041 94q-85 -53 -178 -83.5t-192 -30.5q-72 0 -139.5 20t-125.5 57t-106 88t-82 113.5t-52.5 134t-18.5 148.5t20.5 148.5t57 134t86 113.5t108 88t122.5 57t130 20q103 0 193 -41t157 -113t106 -171t39 -216v-47h-768v-328q55 -51 125 -80.5t148 -29.5q94 0 186.5 29.5
t181.5 92.5zM671 1008q-75 0 -145.5 -32.5t-127.5 -89.5v-277h540v286q-53 52 -121.5 82.5t-145.5 30.5z" />
    <glyph glyph-name="oneeighth" unicode="&#x215b;" horiz-adv-x="1559" 
d="M417 646h-54v722l-248 -81v53l293 97h9v-791zM353 131l-45 31l711 1138l45 -31zM1397 586q0 -65 -41.5 -112.5t-109.5 -69.5q39 -11 71 -30t55 -44t36 -56t13 -66q0 -54 -22 -95t-60 -68.5t-89.5 -41.5t-110.5 -14q-60 0 -112.5 14t-90.5 41.5t-60 68.5t-22 95
q0 72 48.5 123t126.5 73q-68 23 -109 70t-41 112q0 52 20 92t54.5 67t81.5 41t102 14t102.5 -14t82.5 -41t55 -67t20 -92zM1367 207q0 39 -18 71t-49 54.5t-73 34.5t-90 12q-49 0 -91 -12t-72.5 -34.5t-48 -54.5t-17.5 -71q0 -41 17.5 -72.5t48 -53.5t73 -33t92.5 -11
q48 0 90 11t72.5 33t48 53.5t17.5 72.5zM1344 587q0 36 -16 66t-44 52t-66 34t-81 12q-44 0 -81.5 -11.5t-65 -32.5t-43 -51.5t-15.5 -68.5q0 -37 15.5 -66.5t43.5 -50t65.5 -31.5t82.5 -11q43 0 80.5 11t65 31.5t43.5 50t16 66.5z" />
    <glyph glyph-name="threeeighths" unicode="&#x215c;" horiz-adv-x="1761" 
d="M346 1086h71q55 0 96.5 12.5t69.5 34.5t42.5 50.5t14.5 61.5q0 34 -12 64.5t-36.5 53t-63 35.5t-90.5 13q-45 0 -83.5 -12t-67 -33.5t-45 -53t-16.5 -70.5h-53q0 49 20.5 89.5t56.5 69t84.5 44t103.5 15.5q58 0 105.5 -14.5t81 -42.5t51.5 -68.5t18 -92.5
q0 -57 -40 -106.5t-115 -72.5q86 -20 130 -70t44 -122q0 -53 -20.5 -94t-56.5 -69.5t-85.5 -43.5t-107.5 -15q-52 0 -103 13.5t-92 42t-66.5 71t-25.5 101.5h54q0 -40 17.5 -73t48.5 -57t74 -37t93 -13q103 0 159.5 46t56.5 127q0 45 -18 76.5t-50 51.5t-76.5 29.5
t-97.5 9.5h-71v49zM531 131l-45 31l711 1138l45 -31zM1572 586q0 -65 -41.5 -112.5t-109.5 -69.5q39 -11 71 -30t55 -44t36 -56t13 -66q0 -54 -22 -95t-60 -68.5t-89.5 -41.5t-110.5 -14q-60 0 -112.5 14t-90.5 41.5t-60 68.5t-22 95q0 72 48.5 123t126.5 73q-68 23 -109 70
t-41 112q0 52 20 92t54.5 67t81.5 41t102 14t102.5 -14t82.5 -41t55 -67t20 -92zM1542 207q0 39 -18 71t-49 54.5t-73 34.5t-90 12q-49 0 -91 -12t-72.5 -34.5t-48 -54.5t-17.5 -71q0 -41 17.5 -72.5t48 -53.5t73 -33t92.5 -11q48 0 90 11t72.5 33t48 53.5t17.5 72.5z
M1519 587q0 36 -16 66t-44 52t-66 34t-81 12q-44 0 -81.5 -11.5t-65 -32.5t-43 -51.5t-15.5 -68.5q0 -37 15.5 -66.5t43.5 -50t65.5 -31.5t82.5 -11q43 0 80.5 11t65 31.5t43.5 50t16 66.5z" />
    <glyph glyph-name="fiveeighths" unicode="&#x215d;" horiz-adv-x="1721" 
d="M161 1075l47 382h447v-51h-402l-37 -283q23 15 71 30.5t110 15.5q58 0 107.5 -17t85.5 -49.5t56 -79t20 -104.5q0 -56 -15 -104t-47.5 -83t-83 -55t-120.5 -20q-46 0 -90 13.5t-80 40.5t-60 68t-29 97h54q4 -42 21.5 -73.5t45 -53.5t63 -33t75.5 -11q111 0 162 55.5
t51 158.5q0 91 -57.5 146.5t-163.5 55.5q-37 0 -64.5 -4.5t-49.5 -12t-40 -18.5t-36 -24zM500 131l-45 31l711 1138l45 -31zM1533 586q0 -65 -41.5 -112.5t-109.5 -69.5q39 -11 71 -30t55 -44t36 -56t13 -66q0 -54 -22 -95t-60 -68.5t-89.5 -41.5t-110.5 -14
q-60 0 -112.5 14t-90.5 41.5t-60 68.5t-22 95q0 72 48.5 123t126.5 73q-68 23 -109 70t-41 112q0 52 20 92t54.5 67t81.5 41t102 14t102.5 -14t82.5 -41t55 -67t20 -92zM1503 207q0 39 -18 71t-49 54.5t-73 34.5t-90 12q-49 0 -91 -12t-72.5 -34.5t-48 -54.5t-17.5 -71
q0 -41 17.5 -72.5t48 -53.5t73 -33t92.5 -11q48 0 90 11t72.5 33t48 53.5t17.5 72.5zM1480 587q0 36 -16 66t-44 52t-66 34t-81 12q-44 0 -81.5 -11.5t-65 -32.5t-43 -51.5t-15.5 -68.5q0 -37 15.5 -66.5t43.5 -50t65.5 -31.5t82.5 -11q43 0 80.5 11t65 31.5t43.5 50
t16 66.5z" />
    <glyph glyph-name="seveneighths" unicode="&#x215e;" horiz-adv-x="1642" 
d="M700 1427l-384 -757h-56l382 739h-517v50h575v-32zM398 131l-45 31l711 1138l45 -31zM1456 586q0 -65 -41.5 -112.5t-109.5 -69.5q39 -11 71 -30t55 -44t36 -56t13 -66q0 -54 -22 -95t-60 -68.5t-89.5 -41.5t-110.5 -14q-60 0 -112.5 14t-90.5 41.5t-60 68.5t-22 95
q0 72 48.5 123t126.5 73q-68 23 -109 70t-41 112q0 52 20 92t54.5 67t81.5 41t102 14t102.5 -14t82.5 -41t55 -67t20 -92zM1426 207q0 39 -18 71t-49 54.5t-73 34.5t-90 12q-49 0 -91 -12t-72.5 -34.5t-48 -54.5t-17.5 -71q0 -41 17.5 -72.5t48 -53.5t73 -33t92.5 -11
q48 0 90 11t72.5 33t48 53.5t17.5 72.5zM1403 587q0 36 -16 66t-44 52t-66 34t-81 12q-44 0 -81.5 -11.5t-65 -32.5t-43 -51.5t-15.5 -68.5q0 -37 15.5 -66.5t43.5 -50t65.5 -31.5t82.5 -11q43 0 80.5 11t65 31.5t43.5 50t16 66.5z" />
    <glyph glyph-name="partialdiff" unicode="&#x2202;" horiz-adv-x="1172" 
d="M581 1022q76 0 142 -18t120.5 -49.5t98 -75t76.5 -94.5q-7 171 -41 300.5t-92.5 216.5t-140 130.5t-183.5 43.5q-50 0 -91 -7.5t-76.5 -23t-67 -38.5t-62.5 -53l-29 41q16 17 44 40.5t69 44.5t95.5 35.5t123.5 14.5q107 0 199.5 -46.5t161 -146t107.5 -256.5t39 -379v-72
q0 -141 -36 -260.5t-101.5 -206.5t-156.5 -135.5t-201 -48.5q-105 0 -192.5 37t-149.5 103.5t-96.5 158.5t-34.5 202v42q0 110 34.5 202t97 158t150 103t193.5 37zM581 968q-99 0 -177 -36.5t-132 -98t-82.5 -142.5t-28.5 -169v-42q0 -89 28.5 -170t82 -142.5t131 -98
t176.5 -36.5q105 0 187 49t138.5 131.5t86 190.5t29.5 226v49q-12 37 -43.5 87t-84.5 95t-130 76t-181 31z" />
    <glyph glyph-name="product" unicode="&#x220f;" horiz-adv-x="1270" 
d="M1089 -272h-54v1674h-801v-1674h-54v1728h909v-1728z" />
    <glyph glyph-name="summation" unicode="&#x2211;" horiz-adv-x="1166" 
d="M716 580l-583 -796h1031v-54h-1107v43l596 819l-596 820v44h37l2 -3v3h1010v-53h-974l584 -799v-24z" />
    <glyph glyph-name="minus" unicode="&#x2212;" horiz-adv-x="1167" 
d="M998 721h-835v54h835v-54z" />
    <glyph glyph-name="radical" unicode="&#x221a;" horiz-adv-x="1016" 
d="M399 239l53 -159l50 159l378 1217h58l-459 -1456h-52v1l-238 650h-124v54h163z" />
    <glyph glyph-name="infinity" unicode="&#x221e;" horiz-adv-x="2223" 
d="M2067 517q0 -108 -31.5 -206t-90 -171.5t-143 -117t-189.5 -43.5q-76 0 -140 24.5t-116 64.5t-93 91t-72 104.5t-53 104t-36 90.5q-14 -39 -35.5 -90t-52.5 -104t-72 -104.5t-92.5 -91.5t-115.5 -64.5t-140 -24.5q-106 0 -190 43.5t-143 117t-90.5 171.5t-31.5 206v48
q0 108 31.5 205.5t90 171t142.5 117t189 43.5q76 0 139.5 -24.5t115.5 -64.5t93 -90.5t72.5 -104t53.5 -104.5t36 -91q14 40 36 91t53.5 104.5t73 104t93.5 90.5t116 64.5t140 24.5q105 0 188.5 -43.5t142 -117t90 -171t31.5 -205.5v-48zM2013 565q0 87 -25 173t-74.5 155
t-124.5 112t-174 43q-66 0 -121 -21t-101 -55.5t-83 -78.5t-65 -89.5t-48.5 -89.5t-33.5 -78t-19 -54.5t-6 -19.5v-42q0 1 11 -34.5t34.5 -90t61 -117.5t90.5 -117.5t122 -91t156 -36.5q100 0 175 42.5t125 111.5t75 155.5t25 174.5v48zM194 517q0 -88 25 -174.5t75 -155.5
t125 -111.5t176 -42.5q86 0 155 36.5t121.5 91t90 117.5t61.5 117.5t35 90t11 34.5v42q0 -1 -6 19.5t-19.5 54.5t-33.5 78t-48.5 89.5t-65 89.5t-82.5 78.5t-101 55.5t-120 21q-100 0 -174.5 -43t-124.5 -112t-75 -155t-25 -173v-48z" />
    <glyph glyph-name="integral" unicode="&#x222b;" horiz-adv-x="514" 
d="M238 -89q0 -170 -75 -259t-210 -89q-31 0 -57 5t-55 15l13 52q16 -6 43.5 -12t55.5 -6q112 0 171.5 76t59.5 218v1325q0 156 74.5 238.5t207.5 82.5q32 0 64.5 -3.5t63.5 -13.5l-8 -52q-28 8 -53 11.5t-66 3.5q-107 0 -168 -69.5t-61 -197.5v-1325v0z" />
    <glyph glyph-name="approxequal" unicode="&#x2248;" horiz-adv-x="1154" 
d="M111 837q48 69 109 107.5t127 38.5q40 1 69.5 -4.5t55.5 -15.5t51.5 -23.5t57.5 -29.5q30 -15 54.5 -28.5t49 -23t53 -15.5t65.5 -6q66 0 125 40.5t107 109.5l7 -66q-48 -69 -109 -107.5t-127 -38.5q-37 0 -64.5 5t-52 14.5t-48 22t-53.5 27.5q-32 16 -58 30.5t-53 25
t-57 16.5t-70 5q-66 0 -125 -40.5t-107 -109.5zM101 447q48 69 109 107.5t127 38.5q40 1 69.5 -4.5t55.5 -15.5t51.5 -23.5t57.5 -29.5q30 -15 54.5 -28.5t49 -23t53 -15.5t65.5 -6q66 0 125 40.5t107 109.5l6 -64q-48 -69 -109 -107.5t-127 -38.5q-37 0 -64.5 5t-52 14.5
t-48 22t-53.5 27.5q-32 16 -58 30.5t-53 25t-57 16.5t-70 5q-66 0 -125 -40.5t-107 -109.5z" />
    <glyph glyph-name="notequal" unicode="&#x2260;" horiz-adv-x="1142" 
d="M981 436h-528l-161 -284l-47 24l147 260h-245v54h276l200 353h-476v54h506l161 283l47 -24l-147 -259h267v-54h-298l-200 -353h498v-54z" />
    <glyph glyph-name="lessequal" unicode="&#x2264;" horiz-adv-x="1053" 
d="M155 758.683l764 -346.39v-59.2373l-837 380.526v50.2012l837 379.523v-58.2344zM911 1h-835v54h835v-54z" />
    <glyph glyph-name="greaterequal" unicode="&#x2265;" horiz-adv-x="1053" 
d="M872 763.691l-758 346.39v59.2373l836 -379.522v-50.2021l-836 -380.526v59.2373zM941 2h-835v54h835v-54z" />
    <glyph glyph-name="lozenge" unicode="&#x25ca;" horiz-adv-x="1036" 
d="M489 1456h51l420 -729l-420 -727h-51l-421 727zM514 1391l-377 -664l377 -665l378 665z" />
    <glyph glyph-name="colon.lnum" unicode="&#xee01;" horiz-adv-x="451" 
d="M154 221q0 23 16 39.5t39 16.5t39.5 -16.5t16.5 -39.5t-16.5 -39t-39.5 -16t-39 16t-16 39zM159 1183q0 23 16 39.5t39 16.5t39.5 -16.5t16.5 -39.5t-16.5 -39t-39.5 -16t-39 16t-16 39z" />
    <glyph glyph-name="quotedblx" unicode="&#xee02;" horiz-adv-x="521" 
d="M180 705h-55v377h55v-377zM411 705h-54v377h54v-377z" />
    <glyph glyph-name="commaaccent" unicode="&#xf6c3;" horiz-adv-x="459" 
d="M274 39q0 -79 -24 -139t-62 -103l-37 32q35 49 52 96t17 112v79h54v-77z" />
    <glyph glyph-name="uniFEFF" unicode="&#xfeff;" horiz-adv-x="0" 
 />
    <glyph glyph-name="uniFFFC" unicode="&#xfffc;" horiz-adv-x="2089" 
d="M820 468q0 -49 -16.5 -89t-47 -69t-72.5 -45t-93 -16q-52 0 -94.5 16t-73 45t-47.5 69t-17 89v112q0 48 17 88.5t47 69.5t72.5 45t93.5 16t93.5 -16t73 -45t47.5 -69.5t17 -88.5v-112zM887 252v549h188q98 0 155 -36.5t57 -113.5q0 -38 -21 -69t-63 -47q50 -13 76 -48
t26 -80q0 -77 -52.5 -116t-144.5 -39h-221zM728 580q0 69 -37 108t-102 39q-64 0 -101 -39t-37 -108v-112q0 -69 37 -108t103 -39q64 0 100.5 39t36.5 108v112zM1682 803h92v-378q0 -40 -14 -71.5t-39 -53.5t-59.5 -34t-74.5 -12q-88 0 -142.5 40.5t-54.5 123.5h93
q0 -47 28 -69t76 -22q41 0 68 27t27 71v378zM86 -398v315h113v-202h196v-113h-309zM1715 -398v113h199v202h111v-315h-310zM86 1169v285h309v-116h-196v-169h-113zM1715 1338v116h310v-285h-111v169h-199zM982 496v-169h126q52 0 77.5 22t25.5 61q0 38 -24.5 61t-73.5 25h-5
h-126zM1316 1338v116h278v-116h-278zM917 1338v116h277v-116h-277zM518 1338v116h276v-116h-276zM1316 -398v113h278v-113h-278zM917 -398v113h277v-113h-277zM518 -398v113h276v-113h-276zM982 566h93q118 0 118 80q0 41 -29 56t-89 15h-93v-151zM199 416h-113v252h113
v-252zM199 794h-113v250h113v-250zM199 41h-113v249h113v-249zM2025 416h-111v252h111v-252zM2025 794h-111v250h111v-250zM2025 41h-111v249h111v-249z" />
    <glyph glyph-name="uniFFFD" unicode="&#xfffd;" horiz-adv-x="2101" 
d="M1048 1618l959 -975l-959 -975l-956 975zM1131 402q0 25 2.5 45t10 36.5t20 30.5t33.5 28q34 18 64 44t52.5 57.5t36 68.5t13.5 78q0 64 -21.5 115.5t-62 88t-99.5 56t-133 19.5q-64 0 -119 -15t-96.5 -47.5t-65.5 -83t-25 -120.5h203q1 27 9.5 46.5t23 32t32.5 18.5
t38 6q57 0 85 -32t28 -84t-26.5 -90.5t-66.5 -64.5q-35 -25 -61 -46.5t-43 -47t-25.5 -58.5t-8.5 -81h202zM1131 311h-202v-170h202v170zM1056 -551h4v-4h-4v4zM1054 2163h4v-4h-4v4z" />
    <glyph glyph-name="two.sup" horiz-adv-x="728" 
d="M651 0h-543v44l290 295q41 40 70 74t47.5 63.5t27 55.5t8.5 51q0 77 -49 122.5t-146 45.5q-53 0 -93.5 -14t-67.5 -39.5t-41 -60t-14 -75.5h-54q0 49 18.5 92t53.5 75.5t85 51.5t113 19q56 0 102 -14.5t78.5 -42.5t50.5 -68t18 -91q0 -37 -15 -73t-40 -72t-57.5 -71.5
t-66.5 -70.5l-251 -248h476v-49z" />
    <glyph glyph-name="cyrillichook" horiz-adv-x="422" 
d="M240 118v-207q0 -170 -75 -259t-210 -89q-31 0 -57 5t-55 15l13 52q16 -6 43.5 -12.5t55.5 -6.5q112 0 171.5 76.5t59.5 218.5v207h54z" />
    <glyph glyph-name="circumflexacutecomb" horiz-adv-x="717" 
d="M323 1475h80l248 -223h-84l-204 186l-204 -186h-84zM753 1584h73l-163 -204h-63z" />
    <glyph glyph-name="brevegravecomb" horiz-adv-x="922" 
d="M724 1456q0 -50 -20.5 -91.5t-59 -71.5t-93.5 -46.5t-125 -16.5t-125.5 16.5t-94.5 46.5t-59.5 71.5t-20.5 91.5h55q0 -35 13 -66.5t42 -54.5t75.5 -36.5t114.5 -13.5q65 0 111.5 14t76 37.5t43 54.5t13.5 65h54zM494 1437h-83l-176 226h94z" />
    <glyph glyph-name="commaaccentrotate" horiz-adv-x="400" 
d="M143 1372q0 60 18 104.5t41 83.5l44 -16q-23 -47 -36 -85t-13 -83v-132h-54v128z" />
    <glyph glyph-name="A.smcp" horiz-adv-x="1058" 
d="M834 342h-610l-137 -342h-59l469 1165h63l469 -1165h-58zM245 396h567l-261 654l-22 64l-22 -65z" />
    <glyph glyph-name="B.smcp" horiz-adv-x="1064" 
d="M170 0v1165h334q95 0 170.5 -18t128.5 -55t81.5 -93.5t28.5 -134.5q0 -99 -53.5 -168.5t-155.5 -91.5q57 -9 105.5 -34.5t84 -63.5t55.5 -85t20 -99q0 -78 -28.5 -138.5t-80 -101t-123 -61.5t-157.5 -21h-410zM224 571v-517h356q78 0 140 18t105.5 52t66.5 83.5t23 112.5
q0 50 -20 95.5t-60.5 80t-102 55t-143.5 20.5h-365zM224 625h297q167 0 252.5 59.5t85.5 182.5q0 122 -89.5 182.5t-265.5 60.5h-280v-485z" />
    <glyph glyph-name="C.smcp" horiz-adv-x="1141" 
d="M1026 358q-10 -93 -45.5 -163t-93 -117t-136 -70.5t-173.5 -23.5q-104 0 -188 37.5t-143.5 105t-92 162t-32.5 209.5v168q0 115 32.5 209.5t92 162.5t144 105.5t188.5 37.5q95 0 173 -24t135.5 -71t93 -117t45.5 -162h-54q-20 156 -118 237.5t-275 81.5q-91 0 -165.5 -33
t-127 -93t-81.5 -145t-29 -188v-169q0 -103 28.5 -188t81 -145.5t127 -94t165.5 -33.5q172 0 273 78t121 243h54z" />
    <glyph glyph-name="D.smcp" horiz-adv-x="1152" 
d="M170 0v1165h347q112 0 207 -37.5t164.5 -105.5t108.5 -163.5t39 -210.5v-132q0 -116 -39 -211t-108.5 -162.5t-165 -105t-207.5 -37.5h-346zM224 1110v-1056h292q101 0 186.5 34t147.5 95.5t97 146t35 186.5v134q0 102 -35 186.5t-97 145.5t-147.5 94.5t-185.5 33.5h-293
z" />
    <glyph glyph-name="E.smcp" horiz-adv-x="1002" 
d="M846 579h-622v-525h710v-54h-764v1165h763v-55h-709v-477h622v-54z" />
    <glyph glyph-name="F.smcp" horiz-adv-x="1005" 
d="M857 565h-633v-565h-54v1165h775v-55h-721v-490h633v-55z" />
    <glyph glyph-name="G.smcp" horiz-adv-x="1208" 
d="M1055 129q-15 -21 -49.5 -46t-87.5 -47t-125.5 -37t-165.5 -15q-108 0 -197 37t-153 105t-99.5 163.5t-35.5 212.5v176q0 113 34 205.5t96 158.5t148.5 102.5t190.5 36.5q102 0 180.5 -26t133.5 -71t87 -106t41 -132h-54q-9 55 -35 106t-72 89.5t-115.5 61.5t-165.5 23
q-95 0 -172 -33t-131 -92t-83.5 -141t-29.5 -180v-178q0 -103 30.5 -188.5t87 -147t136.5 -95.5t178 -34q76 0 138.5 11.5t110 28.5t79 37t46.5 37v329h-377v54h431v-405z" />
    <glyph glyph-name="H.smcp" horiz-adv-x="1238" 
d="M1067 0h-54v550h-789v-550h-54v1165h54v-561h789v561h54v-1165z" />
    <glyph glyph-name="I.smcp" horiz-adv-x="460" 
d="M257 0h-54v1165h54v-1165z" />
    <glyph glyph-name="J.smcp" horiz-adv-x="967" 
d="M747 1165h55v-830q0 -82 -26.5 -147t-73.5 -110.5t-112 -69.5t-142 -24q-83 0 -152 20.5t-118 62.5t-76 105t-27 149h54q0 -138 82 -211t237 -73q63 0 118 20.5t95 59t63 94t23 124.5v830z" />
    <glyph glyph-name="K.smcp" horiz-adv-x="1116" 
d="M419 607l-195 -174v-433h-54v1165h54v-666l200 186l510 480h76l-548 -519l598 -646h-72z" />
    <glyph glyph-name="L.smcp" horiz-adv-x="912" 
d="M224 54h640v-54h-694v1165h54v-1111z" />
    <glyph glyph-name="M.smcp" horiz-adv-x="1512" 
d="M245 1165l509 -1083l510 1083h77v-1165h-54v549l1 541l-512 -1090h-43l-510 1086l1 -537v-549h-54v1165h75z" />
    <glyph glyph-name="N.smcp" horiz-adv-x="1246" 
d="M1076 0h-54l-798 1075v-1075h-54v1165h54l798 -1072v1072h54v-1165z" />
    <glyph glyph-name="O.smcp" horiz-adv-x="1176" 
d="M1061 502q0 -117 -33.5 -212.5t-95 -163.5t-149 -105t-195.5 -37t-195.5 37t-149.5 105t-95.5 163.5t-33.5 212.5v160q0 117 33.5 212.5t95 163.5t149 105.5t195.5 37.5t195.5 -37.5t149.5 -105.5t95.5 -163.5t33.5 -212.5v-160zM1008 664q0 103 -28.5 188t-82.5 146
t-132 94.5t-178 33.5q-99 0 -177 -33.5t-132 -94.5t-82 -146t-28 -188v-162q0 -104 28.5 -189t82.5 -146.5t132 -95t177 -33.5q100 0 178 33.5t132 95t82 146.5t28 189v162z" />
    <glyph glyph-name="P.smcp" horiz-adv-x="1061" 
d="M224 487v-487h-54v1165h396q100 0 176 -25t127.5 -70t77.5 -108t26 -140q0 -78 -26 -140t-77 -105.5t-127.5 -66.5t-176.5 -23h-342zM224 542h342q93 0 160 22t109.5 59.5t62.5 88.5t20 109q0 60 -20 112.5t-62.5 91.5t-109.5 62t-160 23h-342v-568z" />
    <glyph glyph-name="Q.smcp" horiz-adv-x="1176" 
d="M1061 502q0 -169 -68 -291t-189 -181l225 -201l-38 -37l-245 215q-74 -23 -159 -23q-108 0 -195.5 37t-149.5 105t-95.5 163.5t-33.5 212.5v160q0 117 33.5 212.5t95 163.5t149 105.5t195.5 37.5t196 -37.5t150 -105.5t95.5 -163.5t33.5 -212.5v-160zM1007 664
q0 103 -28.5 188t-82.5 146t-132 94.5t-178 33.5q-99 0 -176.5 -33.5t-131.5 -94.5t-82 -146t-28 -188v-162q0 -104 28.5 -189t82 -146.5t131.5 -95t177 -33.5q100 0 178 33.5t132 95t82 146.5t28 189v162z" />
    <glyph glyph-name="R.smcp" horiz-adv-x="1147" 
d="M647 487h-427v-487h-54v1165h400q91 0 166.5 -23.5t130.5 -68t85.5 -109t30.5 -146.5q0 -61 -21.5 -114t-59 -94.5t-88 -70t-109.5 -39.5l330 -490v-10h-57zM220 541h385q79 0 139 23.5t100 62t60 88.5t20 103q0 66 -25 120t-71.5 92.5t-113 59t-148.5 20.5h-346v-569z
" />
    <glyph glyph-name="S.smcp" horiz-adv-x="1041" 
d="M914 281q0 53 -20 94.5t-64.5 75.5t-117 61.5t-177.5 53.5q-96 24 -172.5 51.5t-130 65t-82 88t-28.5 120.5q0 67 31.5 121t87 91.5t131.5 57.5t165 20q92 0 169 -25.5t132.5 -71.5t86.5 -109.5t31 -139.5h-54q0 63 -26 116t-73.5 92t-115 61t-150.5 22q-87 0 -154.5 -19
t-113.5 -51t-70 -74.5t-24 -88.5q0 -45 17 -83.5t60 -72t115.5 -62.5t182.5 -55q93 -23 170 -51t132.5 -67.5t86 -93t30.5 -126.5q0 -71 -33.5 -126.5t-91 -93.5t-135 -58t-165.5 -20q-81 0 -163 18t-148.5 58.5t-108.5 106.5t-42 162h53q0 -84 38.5 -140t98.5 -89.5
t132.5 -48t139.5 -14.5q81 0 149 17.5t117 50t76.5 77.5t27.5 99z" />
    <glyph glyph-name="T.smcp" horiz-adv-x="1052" 
d="M1005 1110h-452v-1110h-54v1110h-453v55h959v-55z" />
    <glyph glyph-name="U.smcp" horiz-adv-x="1171" 
d="M1015 1165v-790q0 -98 -32.5 -171.5t-90.5 -122t-136.5 -73t-169.5 -24.5q-92 0 -170.5 24.5t-136 73t-90 122t-32.5 171.5v790h53v-790q0 -82 28.5 -145t79 -106t119.5 -65t149 -22t148.5 22t119 65t79 106t28.5 145v790h54z" />
    <glyph glyph-name="V.smcp" horiz-adv-x="1056" 
d="M503 137l25 -81l26 81l414 1028h59l-468 -1165h-62l-468 1165h60z" />
    <glyph glyph-name="W.smcp" horiz-adv-x="1593" 
d="M366 282l55 -198l55 194l294 887h57l290 -887l56 -197l56 201l254 883h57l-334 -1165h-59l-307 952l-42 130l-41 -130l-311 -952h-58l-336 1165h59z" />
    <glyph glyph-name="X.smcp" horiz-adv-x="1055" 
d="M526 638l398 527h68l-431 -572l448 -593h-66l-417 547l-415 -547h-65l448 593l-432 572h67z" />
    <glyph glyph-name="Y.smcp" horiz-adv-x="1052" 
d="M507 509l17 -33l18 34l413 655h65l-468 -728v-437h-55v439l-467 726h65z" />
    <glyph glyph-name="Z.smcp" horiz-adv-x="1053" 
d="M156 54h816v-54h-892v46l786 1065h-753v54h831v-42z" />
    <glyph glyph-name="zero.smcp" horiz-adv-x="1010" 
d="M897 480q0 -117 -25.5 -209t-75 -156t-122.5 -97.5t-168 -33.5q-94 0 -167.5 33.5t-123.5 97.5t-76.5 156t-26.5 209v205q0 117 26 209t75.5 156t122.5 97.5t168 33.5t168 -33.5t123 -97.5t76 -156t26 -209v-205zM843 689q0 99 -21 179.5t-63 138t-105.5 89t-149.5 31.5
t-149.5 -31.5t-105.5 -89t-62.5 -138t-20.5 -179.5v-211q0 -98 21 -179t63.5 -139t106 -90.5t149.5 -32.5t149.5 32.5t105 90.5t62 139t20.5 179v211z" />
    <glyph glyph-name="one.smcp" horiz-adv-x="1010" 
d="M596 0h-54v1093l-375 -123v59l418 139h11v-1168z" />
    <glyph glyph-name="two.smcp" horiz-adv-x="1010" 
d="M923 0h-787v51l429 439q61 62 105 114t72.5 97.5t42 86t13.5 78.5q0 120 -76.5 190t-229.5 70q-82 0 -144.5 -22t-105 -61t-64 -92.5t-21.5 -116.5h-54q0 71 27 134t77 110.5t122.5 75t162.5 27.5q80 0 146.5 -21t114 -61t74 -98.5t26.5 -134.5q0 -54 -23 -108
t-61 -107.5t-86 -106.5t-98 -104l-379 -386h717v-54z" />
    <glyph glyph-name="three.smcp" horiz-adv-x="1010" 
d="M373 621h101q85 0 150 19.5t109.5 53.5t67 78t22.5 94q0 54 -18.5 101.5t-57 82.5t-98.5 55.5t-142 20.5q-70 0 -131 -18.5t-106 -53t-71 -84t-26 -111.5h-54q0 73 31 132.5t83.5 101.5t123 65t150.5 23q85 0 153.5 -21.5t116.5 -63t74 -100.5t26 -134q0 -44 -16.5 -85
t-47 -75.5t-75 -62t-100.5 -43.5q128 -29 198 -102t70 -184q0 -78 -29.5 -138.5t-81.5 -102.5t-123.5 -63.5t-156.5 -21.5q-75 0 -150 20t-136 62t-99 105.5t-38 150.5h54q0 -63 28 -115t77.5 -90t117 -59t146.5 -21q80 0 143 18.5t106 53t65.5 85t22.5 113.5q0 69 -28 118
t-78 80.5t-119.5 46t-152.5 14.5h-101v55z" />
    <glyph glyph-name="four.smcp" horiz-adv-x="1010" 
d="M760 365h225v-55h-225v-310h-54v310h-634v33l624 822h64v-800zM153 365h553v740l-73 -114z" />
    <glyph glyph-name="five.smcp" horiz-adv-x="1010" 
d="M189 606l71 559h653v-56h-609l-57 -447q17 12 44.5 25t63.5 24t79.5 18t91.5 7q85 0 157.5 -25t126 -72t83.5 -115t30 -153q0 -84 -21.5 -154.5t-68.5 -122.5t-120.5 -81t-177.5 -29q-65 0 -128.5 19.5t-115.5 59.5t-87 100.5t-42 142.5h55q7 -65 34.5 -115.5t70.5 -84.5
t97.5 -51.5t115.5 -17.5q175 0 254 85.5t79 247.5q0 70 -22.5 127.5t-66 98t-107.5 63t-146 22.5q-57 0 -100.5 -6.5t-78 -18t-62.5 -28.5t-55 -38z" />
    <glyph glyph-name="six.smcp" horiz-adv-x="1010" 
d="M756 1178v-54h-17q-110 0 -207.5 -32t-171.5 -97.5t-120 -164.5t-53 -234q24 36 59 67t79.5 53.5t97 35.5t111.5 13q91 0 161.5 -29.5t119 -81t73.5 -121t25 -150.5q0 -84 -27 -157t-76.5 -127t-118 -84.5t-150.5 -30.5q-88 0 -163 30t-129.5 84.5t-85.5 130.5t-31 169
v126q0 167 47 290t129 204t193 120.5t238 39.5h17zM526 710q-59 0 -114.5 -16.5t-101.5 -45.5t-78.5 -68.5t-45.5 -86.5v-95q0 -83 26.5 -149.5t73.5 -113.5t112 -72.5t143 -25.5q73 0 132 28t100 75.5t63.5 110t22.5 131.5q0 68 -20.5 128t-62 104.5t-104 70t-146.5 25.5z
" />
    <glyph glyph-name="seven.smcp" horiz-adv-x="1010" 
d="M908 1130l-575 -1130h-56l570 1110h-778v55h839v-35z" />
    <glyph glyph-name="eight.smcp" horiz-adv-x="1010" 
d="M886 867q0 -49 -17.5 -92t-48.5 -77.5t-74.5 -60.5t-95.5 -41q60 -15 110 -42.5t86.5 -65t56.5 -84t20 -99.5q0 -80 -32.5 -140t-89 -100.5t-132 -60.5t-162.5 -20q-89 0 -165.5 20t-133 60.5t-88.5 100.5t-32 140q0 54 20 100.5t55.5 84t85.5 64.5t110 42q-52 15 -95 41
t-74 61t-48 77.5t-17 91.5q0 76 29.5 134.5t80.5 98.5t120.5 60.5t149.5 20.5q79 0 148.5 -20.5t121.5 -60.5t81.5 -98.5t29.5 -134.5zM868 302q0 61 -28.5 110t-77.5 84t-115.5 54t-141.5 19q-77 0 -143.5 -19t-115 -54t-76.5 -84t-28 -110q0 -64 28 -113.5t77 -83
t115.5 -51t144.5 -17.5q75 0 141 17.5t115 51t77 83t28 113.5zM832 870q0 56 -25.5 103t-70 81t-104 53t-127.5 19q-70 0 -129.5 -17.5t-103 -50.5t-68.5 -80.5t-25 -107.5q0 -57 25 -102.5t68.5 -78t103.5 -49.5t131 -17q68 0 127 17t103 49.5t69.5 78t25.5 102.5z" />
    <glyph glyph-name="nine.smcp" horiz-adv-x="1010" 
d="M298 40q136 0 234.5 38t163 107t96 166t31.5 216q-24 -43 -60 -78.5t-81.5 -60.5t-99 -38.5t-112.5 -13.5q-87 0 -158 32t-121.5 86t-78 125t-27.5 149q0 84 29 159.5t80.5 131.5t124 89t159.5 33q95 0 169 -30.5t125 -89t78 -144.5t27 -197v-119q0 -141 -35 -254.5
t-106.5 -194t-180.5 -123.5t-257 -43h-30l2 54h28zM472 430q75 0 134.5 22t103 57t72 78t41.5 86v49q0 100 -23.5 176t-67.5 126.5t-107.5 76t-143.5 25.5q-77 0 -139 -30t-105.5 -79.5t-67 -114t-23.5 -133.5q0 -65 22 -126.5t63.5 -108.5t102 -75.5t138.5 -28.5z" />
    <glyph glyph-name="zero.sup" horiz-adv-x="728" 
d="M632 327q0 -163 -68.5 -250.5t-199.5 -87.5q-128 0 -199 87.5t-71 250.5v135q0 163 70 250.5t199 87.5q130 0 199.5 -87.5t69.5 -250.5v-135zM579 467q0 65 -13.5 117.5t-40.5 89.5t-67.5 57t-94.5 20t-94.5 -20t-67.5 -57t-40.5 -89.5t-13.5 -117.5v-145
q0 -64 13.5 -116.5t41 -90t68 -58t94.5 -20.5q55 0 95.5 20.5t67 58t39.5 90t13 116.5v145z" />
    <glyph glyph-name="one.sup" horiz-adv-x="728" 
d="M433 0h-54v722l-248 -81v53l293 97h9v-791z" />
    <glyph glyph-name="breveacutecomb" horiz-adv-x="869" 
d="M710 1456q0 -46 -19.5 -84.5t-55.5 -66t-88 -42.5t-118 -15t-118.5 15t-88.5 42.5t-55.5 66t-19.5 84.5h54q0 -33 12 -62.5t39 -51.5t70.5 -35t106.5 -13q60 0 103 13t70.5 35.5t40 52t12.5 61.5h55zM531 1637h65l-176 -213h-55z" />
    <glyph glyph-name="three.sup" horiz-adv-x="728" 
d="M270 426h71q55 0 96.5 12.5t69.5 34.5t42.5 50.5t14.5 61.5q0 34 -12 64.5t-36.5 53t-63 35.5t-90.5 13q-45 0 -83.5 -12t-67 -33.5t-45 -53t-16.5 -70.5h-53q0 49 20.5 89.5t56.5 69t84.5 44t103.5 15.5q58 0 105.5 -14.5t81 -42.5t51.5 -68.5t18 -92.5
q0 -57 -40 -106.5t-115 -72.5q86 -20 130 -70t44 -122q0 -53 -20.5 -94t-56.5 -69.5t-85.5 -43.5t-107.5 -15q-52 0 -103 13.5t-92 42t-66.5 71t-25.5 101.5h54q0 -40 17.5 -73t48.5 -57t74 -37t93 -13q103 0 159.5 46t56.5 127q0 45 -18 76.5t-50 51.5t-76.5 29.5
t-97.5 9.5h-71v49z" />
    <glyph glyph-name="four.sup" horiz-adv-x="728" 
d="M542 253h147v-49h-147v-204h-53v204h-423l-1 32l417 553h60v-536zM135 253h354v474l-44 -71z" />
    <glyph glyph-name="five.sup" horiz-adv-x="728" 
d="M145 407l47 382h447v-51h-402l-37 -283q23 15 71 30.5t110 15.5q58 0 107.5 -17t85.5 -49.5t56 -79t20 -104.5q0 -56 -15 -104t-47.5 -83t-83 -55t-120.5 -20q-46 0 -90 13.5t-80 40.5t-60 68t-29 97h54q4 -42 21.5 -73.5t45 -53.5t63 -33t75.5 -11q111 0 162 55.5
t51 158.5q0 91 -57.5 146.5t-163.5 55.5q-37 0 -64.5 -4.5t-49.5 -12t-40 -18.5t-36 -24z" />
    <glyph glyph-name="six.sup" horiz-adv-x="728" 
d="M534 797v-50h-12q-75 0 -139 -21t-112 -63t-77 -105t-33 -147q32 46 90.5 77t135.5 31q62 0 110 -20.5t80.5 -55.5t49 -82.5t16.5 -101.5q0 -57 -18.5 -106.5t-52 -85.5t-80.5 -57t-105 -21q-62 0 -113.5 21t-88.5 59t-57.5 90t-20.5 115v80q0 109 30 192t84 139
t130.5 84t169.5 28h13zM378 470q-37 0 -72 -10.5t-64.5 -28.5t-50.5 -43t-31 -54v-60q0 -55 17 -99t47.5 -74.5t72 -47t90.5 -16.5q47 0 84.5 18t64 48t40.5 70t14 85q0 44 -13 82.5t-39.5 67.5t-66 45.5t-93.5 16.5z" />
    <glyph glyph-name="seven.sup" horiz-adv-x="728" 
d="M641 757l-384 -757h-56l382 739h-517v50h575v-32z" />
    <glyph glyph-name="eight.sup" horiz-adv-x="728" 
d="M623 586q0 -65 -41.5 -112.5t-109.5 -69.5q39 -11 71 -30t55 -44t36 -56t13 -66q0 -54 -22 -95t-60 -68.5t-89.5 -41.5t-110.5 -14q-60 0 -112.5 14t-90.5 41.5t-60 68.5t-22 95q0 72 48.5 123t126.5 73q-68 23 -109 70t-41 112q0 52 20 92t54.5 67t81.5 41t102 14
t102.5 -14t82.5 -41t55 -67t20 -92zM593 207q0 39 -18 71t-49 54.5t-73 34.5t-90 12q-49 0 -91 -12t-72.5 -34.5t-48 -54.5t-17.5 -71q0 -41 17.5 -72.5t48 -53.5t73 -33t92.5 -11q48 0 90 11t72.5 33t48 53.5t17.5 72.5zM570 587q0 36 -16 66t-44 52t-66 34t-81 12
q-44 0 -81.5 -11.5t-65 -32.5t-43 -51.5t-15.5 -68.5q0 -37 15.5 -66.5t43.5 -50t65.5 -31.5t82.5 -11q43 0 80.5 11t65 31.5t43.5 50t16 66.5z" />
    <glyph glyph-name="nine.sup" horiz-adv-x="728" 
d="M221 40q90 0 154.5 24t106.5 67.5t62.5 105t21.5 135.5q-32 -52 -92 -84.5t-137 -32.5q-60 0 -108 21.5t-81.5 58.5t-51.5 85t-18 101q0 57 19 107.5t54.5 89t85 60.5t110.5 22q132 0 202.5 -83t70.5 -231v-75q0 -94 -23 -171t-71.5 -132t-124 -85.5t-180.5 -30.5h-19
l1 48h18zM342 304q46 0 83.5 13t65.5 34t47 48t28 54v38q0 130 -58.5 194.5t-159.5 64.5q-50 0 -89.5 -19t-67 -50.5t-42.5 -73t-15 -85.5q0 -42 14 -81.5t40.5 -70t65 -48.5t88.5 -18z" />
    <glyph glyph-name="crossbar" horiz-adv-x="811" 
d="M695 721h-587v54h587v-54z" />
    <glyph glyph-name="dasiaoxia" horiz-adv-x="775" 
d="M341 1164l152 313h59v-21l-159 -301h-52v9zM179 1258q0 37 9.5 71.5t27.5 64t43 52t57 36.5l26 -41q-55 -33 -80 -78.5t-25 -110.5v-98h-58v104z" />
    <glyph glyph-name="ringacute" horiz-adv-x="660" 
d="M478 1698h80l-184 -191h-66zM194 1311q0 29 11 55t30 45.5t44 30.5t54 11q28 0 53 -11t43.5 -30.5t29.5 -45.5t11 -55t-11 -54t-29.5 -44t-43.5 -29.5t-53 -10.5q-29 0 -54 10.5t-44 29.5t-30 44t-11 54zM245 1311q0 -38 26 -63t62 -25t61 25t25 63q0 40 -25 65.5
t-61 25.5t-62 -25.5t-26 -65.5z" />
    <glyph glyph-name="brevehookcomb" horiz-adv-x="861" 
d="M694 1456q0 -45 -19 -82.5t-54 -64.5t-85.5 -42t-114.5 -15t-115 15t-86 42t-54 64.5t-19 82.5h53q0 -32 11.5 -61t38 -50.5t68.5 -34t103 -12.5q58 0 99.5 13t67.5 34.5t38.5 50t12.5 60.5h55zM400 1439v89q96 6 139 27.5t43 72.5q0 27 -21 45.5t-54 30t-73 16t-79 4.5
l7 43q60 0 110.5 -9t86.5 -27t56.5 -44t20.5 -59q0 -36 -15 -61.5t-40.5 -42.5t-60 -26t-74.5 -12v-47h-46z" />
    <glyph glyph-name="brevetildecomb" horiz-adv-x="922" 
d="M691 1437q0 -47 -18 -86t-52 -67.5t-82.5 -44t-109.5 -15.5q-62 0 -110.5 15.5t-82 44t-51.5 67.5t-18 86h54q0 -34 11 -64t36 -52.5t64.5 -35.5t96.5 -13q55 0 94 13.5t64 36t36.5 52.5t11.5 63h56zM691 1666q0 -32 -12 -58.5t-33 -45.5t-49 -29.5t-61 -10.5
q-40 0 -66 14t-47.5 30.5t-43.5 30.5t-54 14q-45 0 -76 -25.5t-31 -71.5l-48 9q0 31 12 56.5t33 43.5t49 28t61 10q38 0 64 -14t48.5 -31.5t45 -31.5t53.5 -14q44 0 75.5 29t31.5 77z" />
    <glyph glyph-name="cyrillictic" horiz-adv-x="408" 
d="M236 -352h-54v447h54v-447z" />
    <glyph glyph-name="cyrillichookleft" horiz-adv-x="422" 
d="M245 20q25 -25 48.5 -54t41.5 -60t29 -63.5t11 -65.5t-10.5 -58t-29.5 -42t-44 -25.5t-54 -8.5q-46 0 -76.5 14.5t-49.5 29.5l16 48q19 -13 45 -25.5t65 -12.5q30 0 47 11t25.5 25.5t10 27.5t1.5 16q0 33 -11 62.5t-29 56.5t-41 52.5t-47 51.5z" />
    <glyph glyph-name="circumflexgravecomb" horiz-adv-x="759" 
d="M690 1252h-84l-204 186l-204 -186h-84l248 223h80zM165 1380h-63l-163 204h73z" />
    <glyph glyph-name="g.alt" horiz-adv-x="1076" 
d="M980 1028h-203q64 -46 100.5 -114t36.5 -152v-22q0 -66 -28.5 -124t-79.5 -102t-121 -69.5t-153 -25.5q-71 0 -136 20q-14 -10 -30.5 -24.5t-30.5 -33.5t-23.5 -42t-9.5 -51q0 -34 11 -55.5t29 -33.5t41 -16.5t46 -4.5h190q79 0 147 -18t117.5 -53.5t77.5 -89t28 -124.5
q0 -57 -32.5 -116t-95.5 -107t-155.5 -78t-211.5 -30q-100 0 -175.5 22.5t-126.5 61.5t-76.5 91t-25.5 111q0 55 19.5 101t52 83.5t75 66t88.5 48.5q-34 17 -55.5 51t-21.5 90q0 30 7.5 55.5t20.5 47t29 39t33 31.5q-44 21 -79.5 50.5t-60 65.5t-38 77.5t-13.5 85.5v22
q0 74 29 136.5t80 107.5t121 70.5t153 25.5q73 0 138 -20h310zM421 124q-56 -8 -106.5 -33.5t-88.5 -63t-60 -84t-22 -95.5q0 -48 21 -90.5t64 -74t109 -49.5t156 -18q106 0 188.5 25.5t138.5 66t85 89.5t29 96q0 49 -18.5 91t-57 73t-98.5 49t-142 18h-190h-8zM201 740
q0 -49 23.5 -97t66.5 -85.5t104 -61t137 -23.5q75 0 135.5 23.5t103.5 61t66 85.5t23 97v22q0 56 -23.5 108t-66.5 91.5t-104 63t-136 23.5t-135.5 -23.5t-103.5 -63t-66.5 -91.5t-23.5 -108v-22z" />
    <glyph glyph-name="largerighthook" horiz-adv-x="756" 
d="M-99 838h249q118 0 220.5 -29.5t178 -96.5t118.5 -174.5t43 -264.5q0 -54 -10.5 -115t-33 -120.5t-58 -114t-84 -96t-112 -66t-142.5 -24.5v51q96 0 168.5 43t120.5 112.5t72.5 156t24.5 173.5q0 137 -39 234.5t-107.5 159t-161 90t-198.5 28.5h-249v53z" />
    <glyph glyph-name="one.lnum" horiz-adv-x="907" 
d="M611 0h-54v1388l-418 -157v59l461 170h11v-1460z" />
    <glyph glyph-name="chi.alt" horiz-adv-x="1050" 
d="M114 1090q55 0 94.5 -25.5t68 -63t48.5 -79.5t37 -74l192 -426l362 660h63l-397 -721l224 -497q21 -42 39.5 -83t38.5 -74t43.5 -53t54.5 -20q11 0 33.5 2t35.5 5l9 -50q-6 -2 -15.5 -4t-20.5 -3.5t-22 -2t-20 -0.5q-39 0 -68 16t-53.5 48.5t-49 80.5t-55.5 112l-208 462
l-393 -714h-59l425 775l-214 477q-21 43 -38 79t-37.5 62.5t-47.5 41.5t-69 15q-5 0 -14 -0.5t-19 -1.5t-19.5 -2.5t-15.5 -3.5l-9 52q12 5 36 7.5t40 2.5z" />
    <glyph glyph-name="alpha.alt" horiz-adv-x="1171" 
d="M918 399q-13 -80 -45 -155.5t-81.5 -134t-115.5 -94.5t-148 -36q-96 0 -171.5 38.5t-127.5 109t-79.5 170.5t-27.5 224v21q0 128 27.5 231.5t80 176.5t128.5 112.5t172 39.5q78 0 141.5 -34t112 -92.5t81.5 -135.5t51 -163l58 405h60l-88 -542l95 -540h-60zM178 521
q0 -108 21.5 -198t64.5 -154.5t108.5 -100t154.5 -35.5q71 0 131 32.5t106.5 91t77.5 138t44 174.5v120q-7 45 -20 97t-33 103t-48.5 98t-66 82.5t-84.5 57t-105 21.5q-89 0 -155 -38.5t-109.5 -106.5t-65 -160.5t-21.5 -200.5v-21z" />
    <glyph glyph-name="delta.alt" 
d="M948 1456v-53h-599q42 -31 89 -60.5t101 -65.5t114.5 -82t128.5 -110q120 -113 186 -253t66 -290v-42q0 -114 -34 -210t-96.5 -165t-149.5 -107.5t-192 -38.5q-106 0 -193.5 38.5t-150 107.5t-97 165t-34.5 210v42q0 110 38.5 202.5t107 160t164 105t209.5 37.5h24.5
t38 -1.5t45.5 -5t46 -10.5q-59 58 -132 113.5t-143.5 104t-129.5 88t-90 66.5v54h683zM141 500q0 -93 28.5 -177.5t82.5 -149t132 -102.5t178 -38q99 0 176.5 38t131 102.5t82 149t28.5 177.5v42q0 83 -20 153t-47.5 124.5t-58 92t-51.5 55.5q-19 5 -45 9.5t-53 8.5t-53 6
t-46 2q-108 0 -194.5 -37.5t-146.5 -100.5t-92 -144.5t-32 -168.5v-42z" />
    <glyph glyph-name="R.alt" horiz-adv-x="1340" 
d="M249 683v-684h-54v1456h464q114 0 203 -24.5t150 -73.5t93 -122t32 -170q0 -58 -19 -114.5t-56.5 -104.5t-92 -83.5t-125.5 -51.5q82 -14 137.5 -45t88.5 -75t47 -100t14 -120v-137q0 -63 15.5 -118t55.5 -92v-25h-53q-35 42 -53.5 102t-18.5 135v133q0 147 -97.5 230.5
t-287.5 83.5h-443zM249 737h400q120 0 203 28t134.5 74t74 105t22.5 121q0 162 -105 249t-319 87h-410v-664z" />
    <glyph glyph-name="K.alt" horiz-adv-x="1300" 
d="M477 711h-223v-711h-54v1456h54v-692h238l618 692h71l-644 -726l690 -730h-71z" />
    <glyph glyph-name="k.alt" horiz-adv-x="969" 
d="M374 553h-148v-553h-54v1536h54v-929h127l492 475h71l-502 -493l539 -589h-70z" />
    <glyph glyph-name="K.alt2" horiz-adv-x="1300" 
d="M267 711h-13v-711h-54v1456h54v-709h12l754 709h81l-773 -725l819 -731h-81z" />
    <glyph glyph-name="k.alt2" horiz-adv-x="925" 
d="M256 533h-30v-533h-54v1560h54v-973h20l527 495h73l-547 -519l574 -563h-72z" />
    <glyph glyph-name="circumflexhookcomb" horiz-adv-x="1028" 
d="M690 1252h-84l-205 186l-203 -186h-84l248 223h80zM685 1368v93q42 3 71 8t46 14t24.5 23.5t7.5 35.5q0 26 -16.5 43t-43 26.5t-59.5 13.5t-67 4l5 55q53 0 97.5 -9.5t76.5 -26.5t50 -42.5t18 -56.5q0 -35 -12.5 -59.5t-35 -40.5t-52.5 -25t-64 -12v-44h-46z" />
    <glyph glyph-name="circumflextildecomb" horiz-adv-x="767" 
d="M690 1252h-84l-205 186l-203 -186h-84l258 223h60zM661 1664q0 -32 -10 -57.5t-27.5 -44t-41.5 -28.5t-51 -10q-40 0 -66 16.5t-47.5 36t-44 36t-55.5 16.5q-37 0 -57.5 -32.5t-20.5 -80.5l-51 8q0 31 10 59.5t27.5 50t41 34.5t50.5 13q39 0 65.5 -16.5t49 -36.5
t45 -36.5t53.5 -16.5q38 0 58.5 24.5t20.5 72.5z" />
    <glyph glyph-name="seven.alt" 
d="M1007 1402q-92 -107 -182 -239t-166 -294t-132 -355.5t-81 -422.5l-6 -91h-54l6 91q22 204 70.5 386t119 345t161.5 307.5t199 272.5h-865v54h930v-54z" />
    <glyph glyph-name="G.alt" horiz-adv-x="1406" 
d="M1226 548q0 -141 -36.5 -247.5t-103.5 -178t-163 -107.5t-214 -36q-120 0 -219.5 46.5t-171 131.5t-111 202.5t-39.5 260.5v238q0 138 40 251.5t112 195t172 126.5t220 45q118 0 209 -32t155 -87.5t101 -131.5t47 -163h-54q-11 71 -41.5 136.5t-85 115t-136 79
t-195.5 29.5q-111 0 -201.5 -41.5t-154.5 -116.5t-99 -178t-35 -226v-240q0 -129 34.5 -236.5t98 -185.5t153.5 -121.5t201 -43.5q97 0 181.5 27.5t147 89t98.5 160t36 240.5v75h-445v55h499v-132z" />
    <glyph glyph-name="C.ss06" horiz-adv-x="1336" 
d="M1236 446q-14 -113 -56 -200.5t-108.5 -146.5t-156 -89.5t-198.5 -30.5q-134 0 -242 55.5t-185 153t-118.5 228.5t-41.5 283v58q0 101 19 193.5t54.5 172.5t86.5 145.5t116.5 111.5t143.5 71.5t167 25.5q109 0 198.5 -31t155.5 -90t108 -145.5t57 -198.5h-54
q-15 95 -50.5 171t-93.5 129.5t-138 82t-183 28.5q-120 0 -218 -51t-168 -140.5t-108.5 -210.5t-38.5 -262v-60q0 -141 38.5 -263t108.5 -211.5t168 -140.5t218 -51q204 0 319.5 104.5t145.5 308.5h54z" />
    <glyph glyph-name="O.ss06" horiz-adv-x="1418" 
d="M1288 699q0 -156 -43 -288t-120 -228t-183 -150t-232 -54q-125 0 -231.5 54t-184 150t-121 228t-43.5 288v58q0 156 43.5 288t120.5 228t183 150t231 54q126 0 232 -54t183.5 -150t121 -228t43.5 -288v-58zM1234 759q0 141 -38 262.5t-107 210.5t-166 140t-215 51
q-117 0 -213.5 -51t-165 -140t-106.5 -210.5t-38 -262.5v-60q0 -142 38 -263.5t107.5 -211t166 -140.5t213.5 -51q118 0 214.5 51t165.5 140.5t106.5 211t37.5 263.5v60z" />
    <glyph glyph-name="G.ss06" horiz-adv-x="1428" 
d="M1248 156q-17 -25 -55 -55.5t-98 -57.5t-141 -45.5t-183 -18.5q-143 0 -260.5 57.5t-202.5 157t-131.5 235t-46.5 291.5v38q0 151 42.5 282t120 228t185 152.5t236.5 55.5q123 0 217.5 -32t161 -87.5t104.5 -131.5t49 -163h-54q-12 71 -43.5 136.5t-88.5 115t-142.5 79
t-203.5 29.5q-80 0 -150.5 -24t-129.5 -67t-105.5 -103.5t-78.5 -134t-49 -158t-17 -175.5v-40q0 -142 41.5 -267t118.5 -218.5t185 -147.5t242 -54q85 0 155.5 15t124.5 37t90.5 48t52.5 48v424h-445v55h499v-504z" />
    <glyph glyph-name="Q.ss06" horiz-adv-x="1418" 
d="M1288 699q0 -111 -22.5 -211t-63.5 -183t-100 -148.5t-131 -107.5l299 -257l-39 -35l-314 265q-97 -43 -207 -43q-125 0 -231.5 54t-184 150t-121 228t-43.5 288v48q0 156 43.5 289.5t120.5 231.5t183 153.5t231 55.5q126 0 232 -55.5t183.5 -153.5t121 -231.5
t43.5 -289.5v-48zM1234 749q0 94 -17 180.5t-49.5 161.5t-79 136.5t-105 105t-128 67t-147.5 23.5q-117 0 -213.5 -52.5t-165 -143.5t-106.5 -214t-38 -264v-50q0 -142 38 -264t107.5 -211t166 -140t213.5 -51q118 0 214.5 51t165.5 140t106.5 211t37.5 264v50z" />
    <glyph glyph-name="D.ss06" horiz-adv-x="1374" 
d="M200 0v1456h383q141 0 262 -51t209.5 -143t139 -220.5t50.5 -284.5v-58q0 -156 -50.5 -284.5t-139 -220.5t-209.5 -143t-262 -51h-383zM254 1402v-1348h329q130 0 241 47.5t192.5 133t127.5 204t46 260.5v61q0 141 -46 258.5t-127.5 203t-192.5 133t-241 47.5h-329z" />
    <glyph glyph-name="one.onum" horiz-adv-x="981" 
d="M582 0h-54v1095l-368 -185v53l391 202h31v-1165z" />
    <glyph glyph-name="two.onum" horiz-adv-x="1154" 
d="M1056 0h-880v34l580 501q55 50 87.5 93t50 80.5t23 70t5.5 61.5q0 61 -17.5 114t-57.5 92t-103.5 61.5t-156.5 22.5q-85 0 -158.5 -25.5t-127.5 -72t-85 -112.5t-31 -147h-54q0 84 34 159t94.5 131t144.5 88.5t183 32.5q100 0 173.5 -26t121.5 -71.5t71 -107t23 -131.5
q0 -97 -50 -182t-146 -174l-504 -438h780v-54z" />
    <glyph glyph-name="three.onum" horiz-adv-x="1124" 
d="M872 1111h-784v54h847v-60l-453 -473q122 -1 217 -34t159.5 -92.5t98 -143t33.5 -186.5q0 -126 -42.5 -224t-117.5 -165t-178 -101.5t-225 -34.5q-107 0 -206.5 25.5t-205.5 77.5l17 45q85 -41 184.5 -66.5t200.5 -25.5q130 0 227.5 36t162 99.5t97 149t32.5 184.5
q0 108 -36 184.5t-99.5 126t-150 72.5t-187.5 23h-78v29z" />
    <glyph glyph-name="four.onum" horiz-adv-x="1225" 
d="M987 53h197v-54h-197v-329h-54v329h-871v36l849 1130h76v-1112zM144 53h789v1063l-64 -92z" />
    <glyph glyph-name="five.onum" horiz-adv-x="1131" 
d="M152 455l84 709h754v-54h-710l-75 -594q72 84 169 115.5t214 31.5q97 0 175 -33.5t133.5 -95t85.5 -148.5t30 -194q0 -114 -35.5 -213t-102 -172.5t-161.5 -116t-213 -42.5q-106 0 -206.5 27t-192.5 87l26 46q74 -52 167.5 -79t205.5 -27q103 0 187.5 37.5t144.5 103.5
t93 155t33 192q0 84 -23.5 159.5t-71 133.5t-118.5 92t-165 34q-95 0 -155.5 -15t-101 -39.5t-68 -55t-57.5 -61.5z" />
    <glyph glyph-name="seven.onum" horiz-adv-x="1070" 
d="M1010 1112l-621 -1442h-63l625 1441h-877v54h936v-53z" />
    <glyph glyph-name="nine.onum" horiz-adv-x="1152" 
d="M462 -295q106 0 193.5 44.5t150.5 126.5t98 196.5t35 254.5v105q-27 -59 -69 -106t-95.5 -80t-117.5 -51t-134 -18q-96 0 -175 39.5t-135 107t-87 156t-31 187.5q0 106 32 200t89.5 165t138 112.5t176.5 41.5q109 0 195 -36t145 -107.5t90.5 -179t31.5 -251.5v-283
q0 -157 -39.5 -282.5t-110 -213.5t-168 -135t-213.5 -47q-69 0 -138 17t-136 49l17 51q31 -15 60 -27t60 -20t64.5 -12t72.5 -4zM523 230q91 0 161.5 29.5t122.5 75.5t84.5 103t47.5 111v62q0 130 -27.5 227.5t-79.5 162.5t-127 98t-170 33q-87 0 -157 -39.5t-119 -104.5
t-75.5 -149t-26.5 -172q0 -84 24.5 -163t71.5 -139.5t115 -97.5t155 -37z" />
    <glyph glyph-name="zero.onum" horiz-adv-x="1265" 
d="M1135 554q0 -141 -40 -248.5t-108.5 -180t-159.5 -109.5t-193 -37q-101 0 -192.5 37t-160.5 109.5t-110 180t-41 248.5v56q0 141 40.5 248.5t109.5 180t160 109.5t192 37q102 0 193.5 -37t160 -109.5t109 -180t40.5 -248.5v-56zM1081 624q0 123 -35.5 217.5t-96.5 159
t-143 97.5t-174 33q-91 0 -172.5 -33t-142.5 -97.5t-97 -159t-36 -217.5v-82q0 -123 36 -218t97.5 -159.5t143.5 -98t173 -33.5q93 0 174 33.5t142 98t96 159.5t35 218v82z" />
    <glyph glyph-name="seven.lnum" horiz-adv-x="981" 
d="M924 1422l-624 -1421h-55l617 1401h-808v54h870v-34z" />
    <glyph glyph-name="b.ss06" horiz-adv-x="1119" 
d="M1019 531q0 -124 -30.5 -225.5t-86.5 -174t-134.5 -112.5t-174.5 -40q-67 0 -124 14.5t-103.5 40.5t-82.5 61.5t-61 77.5l-7 -173h-45v1536h54v-651q26 49 61.5 89t81.5 68.5t102 44t122 15.5q96 0 175 -38t135.5 -109t87 -173t30.5 -230v-21zM963 552q0 108 -24.5 199
t-72 157t-116.5 103t-158 37q-87 0 -150 -25.5t-106.5 -66t-70 -89.5t-41.5 -97v-496q19 -51 51 -95.5t77.5 -76.5t106 -50.5t135.5 -18.5q88 0 157 37.5t116 103.5t71.5 157.5t24.5 199.5v21z" />
    <glyph glyph-name="c.ss06" horiz-adv-x="1062" 
d="M562 33q63 0 123.5 17t108.5 53t79 91.5t36 133.5h54q-4 -83 -37.5 -147.5t-88 -109.5t-125.5 -68.5t-150 -23.5q-105 0 -190.5 40t-146 111.5t-93 171t-32.5 218.5v42q0 119 32.5 218t92.5 170.5t145 111.5t190 40q78 0 149.5 -24t126.5 -71.5t89 -118t38 -163.5h-54
q-4 81 -34 141.5t-77.5 101t-109 60.5t-128.5 20q-99 0 -175 -38t-127.5 -104t-77.5 -154.5t-26 -189.5v-42q0 -102 26 -190.5t77.5 -154.5t128 -104t176.5 -38z" />
    <glyph glyph-name="d.ss06" horiz-adv-x="1119" 
d="M100 552q0 128 30.5 230t87 173t135.5 109t175 38q67 0 123 -16t101.5 -44.5t81 -69t61.5 -89.5v653h54v-1536h-52l-2 173q-25 -42 -60.5 -77.5t-81.5 -61.5t-103 -40.5t-124 -14.5q-96 0 -174.5 40t-134.5 112.5t-86.5 174t-30.5 225.5v21zM156 531q0 -108 24.5 -199.5
t71.5 -157.5t115.5 -103.5t157.5 -37.5q74 0 134 18t106 49.5t78 74.5t52 93v507q-16 47 -43 95.5t-70.5 88t-106 64.5t-148.5 25q-89 0 -158.5 -37t-116.5 -103t-71.5 -157t-24.5 -199v-21z" />
    <glyph glyph-name="g.ss06" horiz-adv-x="1122" 
d="M100 552q0 128 30.5 230t87 173t135.5 109t175 38q67 0 123 -16t101.5 -45t81 -69.5t61.5 -89.5l8 200h46v-1067q0 -104 -28 -187.5t-81 -142t-128.5 -90t-171.5 -31.5q-38 0 -79 4.5t-82.5 13t-81 21.5t-72.5 30l17 47q35 -16 69 -27.5t69.5 -19.5t74 -12t83.5 -4
q88 0 154.5 28t111.5 80t67.5 125.5t22.5 164.5v156q-25 -41 -60.5 -76.5t-81.5 -61t-102.5 -40t-123.5 -14.5q-96 0 -174.5 40t-134.5 112.5t-86.5 174t-30.5 225.5v21zM155 531q0 -108 24.5 -199.5t72 -157.5t116 -103.5t157.5 -37.5q76 0 136 18.5t106 51t77.5 77
t49.5 96.5v491q-15 48 -41 98t-69 90.5t-106 66.5t-151 26q-89 0 -158.5 -37t-117 -103t-72 -157t-24.5 -199v-21z" />
    <glyph glyph-name="o.ss06" horiz-adv-x="1127" 
d="M90 562q0 119 36 218t99.5 170.5t150 111.5t187.5 40q102 0 189 -40t150 -111.5t99 -170.5t36 -218v-42q0 -119 -36 -218.5t-99 -171t-149.5 -111.5t-187.5 -40q-102 0 -188.5 40t-150.5 111.5t-100 171t-36 218.5v42zM144 520q0 -97 30 -185.5t85 -155.5t133 -106.5
t173 -39.5q94 0 171 39.5t132 106.5t85 155.5t30 185.5v42q0 95 -30 182.5t-85 155t-132.5 108t-172.5 40.5t-172 -40.5t-132 -108t-85 -155t-30 -182.5v-42z" />
    <glyph glyph-name="p.ss06" horiz-adv-x="1119" 
d="M1019 531q0 -124 -30.5 -225.5t-86.5 -174t-134.5 -112.5t-174.5 -40q-66 0 -122.5 14t-102.5 39.5t-82.5 60t-61.5 75.5v-584h-54v1498h42l11 -194q52 96 144 155t224 59q96 0 175 -38t135.5 -109t87 -173t30.5 -230v-21zM964 552q0 108 -24.5 199t-72 157t-117 103
t-158.5 37q-86 0 -148.5 -25t-106 -64.5t-71 -88t-42.5 -95.5v-506q19 -51 51.5 -94t78.5 -74.5t106 -49.5t134 -18q88 0 157 37.5t116.5 103.5t72 157.5t24.5 199.5v21z" />
    <glyph glyph-name="q.ss06" horiz-adv-x="1119" 
d="M100 542q0 128 30.5 231.5t87 176.5t135.5 112.5t175 39.5q66 0 121.5 -15.5t101.5 -43.5t82 -67.5t62 -87.5l5 194h49v-1498h-54v584q-26 -41 -62 -75.5t-82.5 -60t-102.5 -39.5t-122 -14q-96 0 -174.5 38.5t-134.5 109t-86.5 170.5t-30.5 224v21zM156 521
q0 -108 24.5 -198t71.5 -154.5t115.5 -100t157.5 -35.5q74 0 134 18t106 49.5t78 74.5t52 93v507q-16 46 -43.5 94t-71.5 88t-106.5 65.5t-146.5 25.5q-89 0 -158.5 -38.5t-116.5 -106.5t-71.5 -160.5t-24.5 -200.5v-21z" />
    <glyph glyph-name="c.ss07" horiz-adv-x="1039" 
d="M539 33q57 0 111.5 13.5t100 42.5t79 73t47.5 106l53 -11q-16 -66 -52.5 -117.5t-88.5 -87.5t-116 -54.5t-134 -18.5q-105 0 -187.5 40t-139 111.5t-86 171t-29.5 218.5v42q0 119 29.5 218t86 170.5t138 111.5t186.5 40q70 0 134.5 -19t117 -56.5t90 -93.5t52.5 -130
l-53 -13q-14 64 -46.5 112.5t-78 81t-101 48.5t-115.5 16q-99 0 -172 -38t-120.5 -104t-70.5 -154.5t-23 -189.5v-42q0 -102 23 -190.5t71 -154.5t121 -104t173 -38z" />
    <glyph glyph-name="e.ss07" horiz-adv-x="1032" 
d="M561 -21q-99 0 -185 39t-150.5 108.5t-101.5 165t-37 208.5v64q0 118 36 217t97.5 170.5t144 111t176.5 39.5q90 0 165.5 -30.5t130 -87.5t85 -139t30.5 -185v-83h-811v-13v-64q0 -97 32 -182t88.5 -148.5t133.5 -100t166 -36.5q93 0 170 30.5t152 101.5l29 -42
q-28 -30 -62.5 -56.5t-77.5 -46t-95 -30.5t-116 -11zM541 1048q-82 0 -151 -32t-120.5 -88t-84 -132.5t-41.5 -164.5h754v33q0 81 -25.5 151.5t-72 122t-112.5 81t-147 29.5z" />
    <glyph glyph-name="g.ss07" horiz-adv-x="1123" 
d="M121 542q0 128 27.5 231.5t80 176.5t128.5 112.5t172 39.5q67 0 123 -16t101.5 -45t81 -69.5t61.5 -89.5l8 200h46v-1067q0 -104 -28 -187.5t-81 -142t-128.5 -90t-171.5 -31.5q-38 0 -79 4t-82 11.5t-80.5 19.5t-72.5 27l16 54q35 -16 69 -27.5t69.5 -19.5t74 -12
t83.5 -4q88 0 154.5 28t111.5 80t67.5 125.5t22.5 164.5v156q-25 -41 -60.5 -76.5t-81.5 -61t-102.5 -40t-123.5 -14.5q-96 0 -171.5 38.5t-127.5 109t-79.5 170.5t-27.5 224v21zM176 521q0 -108 21.5 -198t65 -154.5t109 -100t154.5 -35.5q76 0 136 18.5t106 51t77.5 77
t49.5 96.5v491q-15 48 -41 98t-69 90.5t-106 66.5t-151 26q-89 0 -155.5 -38.5t-110 -106.5t-65 -160.5t-21.5 -200.5v-21z" />
    <glyph glyph-name="six.alt" 
d="M641 1476q30 0 62.5 -3t64.5 -9.5t62 -16.5t54 -23l-19 -53q-28 12 -53 21.5t-51 16t-55 10t-65 3.5q-89 0 -168.5 -39t-139.5 -121.5t-95.5 -211.5t-35.5 -309v-15q25 49 63.5 91.5t88 73.5t110 48.5t128.5 17.5q100 0 178.5 -36t132.5 -100t82 -151t28 -190
q0 -106 -30 -197.5t-84.5 -159t-130 -106t-166.5 -38.5q-97 0 -180 36t-144 102.5t-95.5 161.5t-34.5 213v248q0 197 39.5 336.5t106.5 228.5t156.5 130t190.5 41zM585 903q-71 0 -137 -24.5t-118.5 -66.5t-86.5 -99.5t-41 -123.5v-96q0 -104 29.5 -189t82.5 -145.5
t126.5 -93.5t161.5 -33q82 0 148 37t112.5 98.5t71.5 142.5t25 170q0 88 -23 165.5t-69.5 134.5t-117 90t-164.5 33z" />
    <glyph glyph-name="nine.alt" 
d="M492 34q97 0 175.5 40.5t134.5 116t86.5 184t30.5 243.5v101q-27 -57 -67.5 -103.5t-91.5 -79.5t-111 -50.5t-126 -17.5q-96 0 -175 39.5t-135 107t-87 156t-31 187.5q0 106 32 200t89.5 165t138 112.5t176.5 41.5q104 0 186 -36t139 -107.5t87 -179t30 -251.5v-283
q0 -152 -35 -271t-98.5 -201t-152 -125t-195.5 -43q-140 0 -276 64l19 53q31 -15 60 -27t60 -20t64.5 -12t72.5 -4zM523 521q86 0 153 29t116.5 75t81 102.5t45.5 110.5v64q0 130 -26 227.5t-75.5 162.5t-121 98t-161.5 33q-87 0 -157 -39.5t-119 -104.5t-75.5 -149
t-26.5 -172q0 -84 24.5 -163t71.5 -139.5t115 -97.5t155 -37z" />
    <glyph glyph-name="D.cn" horiz-adv-x="1340" 
d="M200 0v1456h403q129 0 237.5 -37.5t187 -109t122.5 -175.5t44 -237v-338q0 -133 -44 -237t-122.5 -175.5t-187 -109t-237.5 -37.5h-403zM254 1402v-1348h349q117 0 216 34t170 99t111 159t40 213v341q0 118 -40 211.5t-111 158t-170 98.5t-216 34h-349z" />
    <glyph glyph-name="Q.cn" horiz-adv-x="1364" 
d="M1221 539q0 -195 -76 -325t-216 -190l262 -252l-39 -35l-281 267q-43 -12 -90 -18.5t-98 -6.5q-125 0 -225 37.5t-170 109t-107.5 175.5t-37.5 238v378q0 133 37 237.5t106.5 175.5t169.5 108.5t225 37.5q126 0 226 -37.5t169.5 -108.5t107 -175.5t37.5 -237.5v-378z
M1167 919q0 119 -32 212.5t-93.5 158t-152 98.5t-208.5 34q-117 0 -207 -34t-151.5 -98.5t-93 -158t-31.5 -212.5v-380q0 -120 32 -214t93.5 -159t152 -99t207.5 -34q118 0 208 34t151.5 99t93 159t31.5 214v380z" />
    <glyph glyph-name="a.cn" horiz-adv-x="1081" 
d="M871 0q-10 35 -14.5 84t-5.5 99q-27 -41 -67 -78t-93 -65t-119 -44.5t-147 -16.5q-76 0 -137.5 18t-105 55t-67 92t-23.5 130q0 72 29.5 133t88.5 104.5t147 68t205 24.5h289v188q0 135 -86 195.5t-244 60.5q-74 0 -137 -18.5t-109.5 -53t-73 -83t-26.5 -109.5l-54 2
q0 67 29.5 125t83 100.5t127 66.5t160.5 24q84 0 154.5 -16.5t121.5 -54t79.5 -97t28.5 -144.5v-572q0 -29 2 -59.5t5.5 -58t8.5 -51.5t12 -40v-9h-62zM425 32q157 0 264.5 65.5t161.5 177.5v274h-286q-111 0 -190 -20.5t-130 -57.5t-75 -88.5t-24 -112.5q0 -59 20.5 -103.5
t57.5 -74.5t88 -45t113 -15z" />
    <glyph glyph-name="cyrillicbreve" horiz-adv-x="857" 
d="M704 1486q0 -55 -19 -100.5t-55 -78.5t-87.5 -51t-116.5 -18t-117 18t-88 51t-55 78.5t-19 100.5h54q0 -39 12 -74t38.5 -61.5t69.5 -41.5t105 -15q60 0 102.5 15.5t69.5 42t39.5 61t12.5 73.5h54z" />
    <glyph glyph-name="nonbreakingspace" unicode="&#xa0;" horiz-adv-x="490" 
 />
    <glyph glyph-name="uni00AD" unicode="&#xad;" horiz-adv-x="607" 
d="M531 639h-470v54h470v-54z" />
    <glyph glyph-name="Dcroat" unicode="&#x110;" horiz-adv-x="1370" 
d="M230 0v713h-140v54h140v689h403q129 0 239 -46.5t190.5 -131t126 -202t45.5 -259.5v-178q0 -142 -45.5 -259.5t-126 -202t-190.5 -131t-239 -46.5h-403zM677 713h-393v-659h349q117 0 217.5 43.5t173.5 121t114.5 185t41.5 235.5v181q0 127 -41.5 234t-114.5 184
t-173.5 120.5t-217.5 43.5h-349v-635h393v-54z" />
    <glyph glyph-name="Eth" unicode="&#xd0;" horiz-adv-x="1370" 
d="M230 0v713h-140v54h140v689h403q129 0 239 -46.5t190.5 -131t126 -202t45.5 -259.5v-178q0 -142 -45.5 -259.5t-126 -202t-190.5 -131t-239 -46.5h-403zM677 713h-393v-659h349q117 0 217.5 43.5t173.5 121t114.5 185t41.5 235.5v181q0 127 -41.5 234t-114.5 184
t-173.5 120.5t-217.5 43.5h-349v-635h393v-54z" />
    <glyph glyph-name="hbar" unicode="&#x127;" horiz-adv-x="1151" 
d="M648 1281h-392v-451q24 57 61.5 107t86.5 86.5t108.5 57.5t127.5 21q82 0 146 -22.5t108 -71t67 -124.5t23 -184v-700h-54v700q0 103 -21.5 170.5t-60.5 107t-93 55.5t-118 16q-59 0 -108 -16.5t-88.5 -44.5t-70.5 -64t-53.5 -76t-37.5 -80t-23 -75v-693h-54v1281h-141
v54h141v201h54v-201h392v-54z" />
    <glyph glyph-name="Tbar" unicode="&#x166;" horiz-adv-x="1224" 
d="M888 847h-249v-847h-54v847h-284v54h284v501h-530v54h1114v-54h-530v-501h249v-54z" />
    <glyph glyph-name="tbar" unicode="&#x167;" horiz-adv-x="648" 
d="M293 1374v-292h246v-55h-246v-339h335v-54h-335v-375q0 -71 13 -115t35.5 -68.5t52 -33t62.5 -8.5q31 0 55 2.5t52 6.5l9 -51q-11 -4 -26 -6t-31 -3.5t-31 -2t-25 -0.5q-52 0 -93 13t-69.5 45t-43.5 86t-15 135v375h-197v54h197v339h-200v55h200v292h55z" />
    <glyph glyph-name="Agrave" unicode="&#xc0;" horiz-adv-x="1223" 
d="M967 435h-713l-162 -435h-59l545 1456h66l545 -1456h-59zM274 489h673l-336 902zM655 1569h-59l-195 266h66z" />
    <glyph glyph-name="Aacute" unicode="&#xc1;" horiz-adv-x="1223" 
d="M967 435h-713l-162 -435h-59l545 1456h66l545 -1456h-59zM274 489h673l-336 902zM761 1835h66l-195 -266h-60z" />
    <glyph glyph-name="Acircumflex" unicode="&#xc2;" horiz-adv-x="1223" 
d="M967 435h-713l-162 -435h-59l545 1456h66l545 -1456h-59zM274 489h673l-336 902zM866 1593v-10h-68l-187 196l-185 -196h-64v14l230 239h40z" />
    <glyph glyph-name="Atilde" unicode="&#xc3;" horiz-adv-x="1223" 
d="M967 435h-713l-162 -435h-59l545 1456h66l545 -1456h-59zM274 489h673l-336 902zM940 1806q0 -42 -13.5 -76t-37.5 -58.5t-56 -38t-69 -13.5q-36 0 -63 9.5t-49 23t-41 30t-39 30t-43 23t-52 9.5q-25 0 -47 -7.5t-38.5 -23.5t-26 -39.5t-9.5 -54.5h-55q0 41 13.5 74
t37.5 56.5t56 36t69 12.5q35 0 62 -9t49.5 -23t42 -30t40 -30t43 -23t50.5 -9q25 0 47 8.5t38.5 25.5t26 41t9.5 56h55z" />
    <glyph glyph-name="Adieresis" unicode="&#xc4;" horiz-adv-x="1223" 
d="M967 435h-713l-162 -435h-59l545 1456h66l545 -1456h-59zM274 489h673l-336 902zM346 1740q0 23 16 39.5t39 16.5t39.5 -16.5t16.5 -39.5t-16.5 -39t-39.5 -16t-39 16t-16 39zM791 1740q0 23 16 39.5t39 16.5t39.5 -16.5t16.5 -39.5t-16.5 -39t-39.5 -16t-39 16t-16 39z
" />
    <glyph glyph-name="Aring" unicode="&#xc5;" horiz-adv-x="1223" 
d="M967 435h-713l-162 -435h-59l545 1456h66l545 -1456h-59zM274 489h673l-336 902zM443 1701q0 37 13 68.5t36.5 55t54.5 37t67 13.5t67 -13.5t54 -37t36.5 -55t13.5 -68.5t-13.5 -68t-36.5 -53.5t-54 -35.5t-67 -13t-67 13t-54.5 35.5t-36.5 53.5t-13 68zM497 1701
q0 -52 33 -84t84 -32t84 32t33 84q0 54 -33 87t-84 33t-84 -33t-33 -87z" />
    <glyph glyph-name="Aringacute" unicode="&#x1fa;" horiz-adv-x="1223" 
d="M967 435h-713l-162 -435h-59l545 1456h66l545 -1456h-59zM274 489h673l-336 902zM758 1920h80l-184 -191h-66zM474 1533q0 29 11 55t30 45.5t44 30.5t54 11q28 0 53 -11t43.5 -30.5t29.5 -45.5t11 -55t-11 -54t-29.5 -44t-43.5 -29.5t-53 -10.5q-29 0 -54 10.5t-44 29.5
t-30 44t-11 54zM525 1533q0 -38 26 -63t62 -25t61 25t25 63q0 40 -25 65.5t-61 25.5t-62 -25.5t-26 -65.5z" />
    <glyph glyph-name="Ccedilla" unicode="&#xc7;" horiz-adv-x="1327" 
d="M1190 446q-11 -118 -52.5 -205.5t-108.5 -145.5t-158 -86.5t-200 -28.5q-120 0 -217.5 46.5t-166 130.5t-106 201.5t-37.5 260.5v218q0 142 37.5 260t106 202t166 130.5t217.5 46.5q109 0 200 -29t158 -86.5t108.5 -144.5t52.5 -204h-54q-23 201 -140 305.5t-325 104.5
q-106 0 -193 -41.5t-149.5 -118t-96.5 -184t-34 -239.5v-220q0 -132 34 -240t96.5 -184.5t149.5 -118.5t193 -42q101 0 182 24.5t140.5 75t95.5 128t47 184.5h54zM706 -9l-11 -76q33 -3 65 -13t57 -29.5t40 -50.5t15 -76q0 -43 -20 -78t-56.5 -60t-89.5 -38.5t-119 -13.5
l-7 49q40 0 82 8t76.5 25.5t56.5 44t22 63.5q0 33 -12 54.5t-36 35.5t-59.5 21.5t-81.5 12.5l25 121h53z" />
    <glyph glyph-name="Egrave" unicode="&#xc8;" horiz-adv-x="1166" 
d="M984 722h-730v-668h832v-54h-886v1456h886v-54h-832v-626h730v-54zM662 1569h-59l-195 266h66z" />
    <glyph glyph-name="Eacute" unicode="&#xc9;" horiz-adv-x="1166" 
d="M984 722h-730v-668h832v-54h-886v1456h886v-54h-832v-626h730v-54zM768 1835h66l-195 -266h-60z" />
    <glyph glyph-name="Ecircumflex" unicode="&#xca;" horiz-adv-x="1166" 
d="M984 722h-730v-668h832v-54h-886v1456h886v-54h-832v-626h730v-54zM873 1593v-10h-68l-187 196l-185 -196h-64v14l230 239h40z" />
    <glyph glyph-name="Edieresis" unicode="&#xcb;" horiz-adv-x="1166" 
d="M984 722h-730v-668h832v-54h-886v1456h886v-54h-832v-626h730v-54zM353 1740q0 23 16 39.5t39 16.5t39.5 -16.5t16.5 -39.5t-16.5 -39t-39.5 -16t-39 16t-16 39zM798 1740q0 23 16 39.5t39 16.5t39.5 -16.5t16.5 -39.5t-16.5 -39t-39.5 -16t-39 16t-16 39z" />
    <glyph glyph-name="Igrave" unicode="&#xcc;" horiz-adv-x="534" 
d="M294 0h-54v1456h54v-1456zM312 1569h-59l-195 266h66z" />
    <glyph glyph-name="Iacute" unicode="&#xcd;" horiz-adv-x="534" 
d="M294 0h-54v1456h54v-1456zM417 1835h66l-195 -266h-60z" />
    <glyph glyph-name="Icircumflex" unicode="&#xce;" horiz-adv-x="534" 
d="M294 0h-54v1456h54v-1456zM523 1593v-10h-68l-187 196l-185 -196h-64v14l230 239h40z" />
    <glyph glyph-name="Idieresis" unicode="&#xcf;" horiz-adv-x="534" 
d="M294 0h-54v1456h54v-1456zM3 1740q0 23 16 39.5t39 16.5t39.5 -16.5t16.5 -39.5t-16.5 -39t-39.5 -16t-39 16t-16 39zM448 1740q0 23 16 39.5t39 16.5t39.5 -16.5t16.5 -39.5t-16.5 -39t-39.5 -16t-39 16t-16 39z" />
    <glyph glyph-name="Ntilde" unicode="&#xd1;" horiz-adv-x="1449" 
d="M1249 0h-54l-940 1364v-1364h-55v1456h55l940 -1361v1361h54v-1456zM1054 1806q0 -42 -13.5 -76t-37.5 -58.5t-56 -38t-69 -13.5q-36 0 -63 9.5t-49 23t-41 30t-39 30t-43 23t-52 9.5q-25 0 -47 -7.5t-38.5 -23.5t-26 -39.5t-9.5 -54.5h-55q0 41 13.5 74t37.5 56.5t56 36
t69 12.5q35 0 62 -9t49.5 -23t42 -30t40 -30t43 -23t50.5 -9q25 0 47 8.5t38.5 25.5t26 41t9.5 56h55z" />
    <glyph glyph-name="Ograve" unicode="&#xd2;" horiz-adv-x="1364" 
d="M1231 619q0 -143 -38.5 -260.5t-110 -201.5t-172.5 -130.5t-227 -46.5q-125 0 -226.5 46.5t-173.5 130.5t-111 201.5t-39 260.5v218q0 142 38.5 260t110 202t173 130.5t226.5 46.5q126 0 227.5 -46.5t173 -130.5t110.5 -202t39 -260v-218zM1177 839q0 128 -33.5 235
t-97 184.5t-155.5 120.5t-210 43q-117 0 -208.5 -43t-155 -120.5t-96.5 -184.5t-33 -235v-220q0 -129 33.5 -236.5t97 -185t155.5 -120.5t209 -43q118 0 210 43t155 120.5t96 185t33 236.5v220zM719 1590h-59l-195 266h66z" />
    <glyph glyph-name="Oacute" unicode="&#xd3;" horiz-adv-x="1364" 
d="M1231 619q0 -143 -38.5 -260.5t-110 -201.5t-172.5 -130.5t-227 -46.5q-125 0 -226.5 46.5t-173.5 130.5t-111 201.5t-39 260.5v218q0 142 38.5 260t110 202t173 130.5t226.5 46.5q126 0 227.5 -46.5t173 -130.5t110.5 -202t39 -260v-218zM1177 839q0 128 -33.5 235
t-97 184.5t-155.5 120.5t-210 43q-117 0 -208.5 -43t-155 -120.5t-96.5 -184.5t-33 -235v-220q0 -129 33.5 -236.5t97 -185t155.5 -120.5t209 -43q118 0 210 43t155 120.5t96 185t33 236.5v220zM825 1856h66l-195 -266h-60z" />
    <glyph glyph-name="Ocircumflex" unicode="&#xd4;" horiz-adv-x="1364" 
d="M1231 619q0 -143 -38.5 -260.5t-110 -201.5t-172.5 -130.5t-227 -46.5q-125 0 -226.5 46.5t-173.5 130.5t-111 201.5t-39 260.5v218q0 142 38.5 260t110 202t173 130.5t226.5 46.5q126 0 227.5 -46.5t173 -130.5t110.5 -202t39 -260v-218zM1177 839q0 128 -33.5 235
t-97 184.5t-155.5 120.5t-210 43q-117 0 -208.5 -43t-155 -120.5t-96.5 -184.5t-33 -235v-220q0 -129 33.5 -236.5t97 -185t155.5 -120.5t209 -43q118 0 210 43t155 120.5t96 185t33 236.5v220zM930 1614v-10h-68l-187 196l-185 -196h-64v14l230 239h40z" />
    <glyph glyph-name="Otilde" unicode="&#xd5;" horiz-adv-x="1364" 
d="M1231 619q0 -143 -38.5 -260.5t-110 -201.5t-172.5 -130.5t-227 -46.5q-125 0 -226.5 46.5t-173.5 130.5t-111 201.5t-39 260.5v218q0 142 38.5 260t110 202t173 130.5t226.5 46.5q126 0 227.5 -46.5t173 -130.5t110.5 -202t39 -260v-218zM1177 839q0 128 -33.5 235
t-97 184.5t-155.5 120.5t-210 43q-117 0 -208.5 -43t-155 -120.5t-96.5 -184.5t-33 -235v-220q0 -129 33.5 -236.5t97 -185t155.5 -120.5t209 -43q118 0 210 43t155 120.5t96 185t33 236.5v220zM1004 1827q0 -42 -13.5 -76t-37.5 -58.5t-56 -38t-69 -13.5q-36 0 -63 9.5
t-49 23t-41 30t-39 30t-43 23t-52 9.5q-25 0 -47 -7.5t-38.5 -23.5t-26 -39.5t-9.5 -54.5h-55q0 41 13.5 74t37.5 56.5t56 36t69 12.5q35 0 62 -9t49.5 -23t42 -30t40 -30t43 -23t50.5 -9q25 0 47 8.5t38.5 25.5t26 41t9.5 56h55z" />
    <glyph glyph-name="Odieresis" unicode="&#xd6;" horiz-adv-x="1364" 
d="M1231 619q0 -143 -38.5 -260.5t-110 -201.5t-172.5 -130.5t-227 -46.5q-125 0 -226.5 46.5t-173.5 130.5t-111 201.5t-39 260.5v218q0 142 38.5 260t110 202t173 130.5t226.5 46.5q126 0 227.5 -46.5t173 -130.5t110.5 -202t39 -260v-218zM1177 839q0 128 -33.5 235
t-97 184.5t-155.5 120.5t-210 43q-117 0 -208.5 -43t-155 -120.5t-96.5 -184.5t-33 -235v-220q0 -129 33.5 -236.5t97 -185t155.5 -120.5t209 -43q118 0 210 43t155 120.5t96 185t33 236.5v220zM410 1761q0 23 16 39.5t39 16.5t39.5 -16.5t16.5 -39.5t-16.5 -39t-39.5 -16
t-39 16t-16 39zM855 1761q0 23 16 39.5t39 16.5t39.5 -16.5t16.5 -39.5t-16.5 -39t-39.5 -16t-39 16t-16 39z" />
    <glyph glyph-name="Ugrave" unicode="&#xd9;" horiz-adv-x="1365" 
d="M1180 1456v-987q0 -123 -37.5 -214.5t-104.5 -152.5t-158 -91.5t-197 -30.5q-107 0 -198 30.5t-157.5 91.5t-104.5 152.5t-38 214.5v987h54v-987q0 -105 34 -186.5t93.5 -136.5t140.5 -83.5t176 -28.5q94 0 175.5 28.5t140.5 83.5t93 136.5t34 186.5v987h54zM740 1569
h-59l-195 266h66z" />
    <glyph glyph-name="Uacute" unicode="&#xda;" horiz-adv-x="1365" 
d="M1180 1456v-987q0 -123 -37.5 -214.5t-104.5 -152.5t-158 -91.5t-197 -30.5q-107 0 -198 30.5t-157.5 91.5t-104.5 152.5t-38 214.5v987h54v-987q0 -105 34 -186.5t93.5 -136.5t140.5 -83.5t176 -28.5q94 0 175.5 28.5t140.5 83.5t93 136.5t34 186.5v987h54zM846 1835h66
l-195 -266h-60z" />
    <glyph glyph-name="Ucircumflex" unicode="&#xdb;" horiz-adv-x="1365" 
d="M1180 1456v-987q0 -123 -37.5 -214.5t-104.5 -152.5t-158 -91.5t-197 -30.5q-107 0 -198 30.5t-157.5 91.5t-104.5 152.5t-38 214.5v987h54v-987q0 -105 34 -186.5t93.5 -136.5t140.5 -83.5t176 -28.5q94 0 175.5 28.5t140.5 83.5t93 136.5t34 186.5v987h54zM951 1593
v-10h-68l-187 196l-185 -196h-64v14l230 239h40z" />
    <glyph glyph-name="Udieresis" unicode="&#xdc;" horiz-adv-x="1365" 
d="M1180 1456v-987q0 -123 -37.5 -214.5t-104.5 -152.5t-158 -91.5t-197 -30.5q-107 0 -198 30.5t-157.5 91.5t-104.5 152.5t-38 214.5v987h54v-987q0 -105 34 -186.5t93.5 -136.5t140.5 -83.5t176 -28.5q94 0 175.5 28.5t140.5 83.5t93 136.5t34 186.5v987h54zM431 1740
q0 23 16 39.5t39 16.5t39.5 -16.5t16.5 -39.5t-16.5 -39t-39.5 -16t-39 16t-16 39zM876 1740q0 23 16 39.5t39 16.5t39.5 -16.5t16.5 -39.5t-16.5 -39t-39.5 -16t-39 16t-16 39z" />
    <glyph glyph-name="Yacute" unicode="&#xdd;" horiz-adv-x="1223" 
d="M609 602l510 854h66l-549 -903v-553h-54v553l-549 903h72zM757 1824h66l-195 -266h-60z" />
    <glyph glyph-name="agrave" unicode="&#xe0;" horiz-adv-x="1081" 
d="M871 0q-11 38 -15.5 91.5t-4.5 106.5q-27 -44 -67 -83.5t-93 -69.5t-119 -47.5t-147 -17.5q-76 0 -137.5 21.5t-105 60.5t-67 93t-23.5 119q0 72 34 133t98.5 104.5t157.5 68t210 24.5h259v158q0 136 -85.5 211t-244.5 75q-74 0 -137 -20t-109.5 -55.5t-73 -84
t-26.5 -104.5l-54 2q0 63 29.5 120.5t83 101t127 69t160.5 25.5q84 0 154.5 -21.5t121.5 -64t79.5 -107t28.5 -149.5v-542q0 -29 2 -59.5t5.5 -58t8.5 -51.5t12 -40v-9h-62zM425 33q78 0 144.5 18t120 52t94 81.5t67.5 107.5v257h-256q-105 0 -188 -20.5t-141 -57.5
t-89 -88.5t-31 -112.5q0 -49 20.5 -92t57.5 -75.5t88 -51t113 -18.5zM620 1250h-59l-195 266h66z" />
    <glyph glyph-name="aacute" unicode="&#xe1;" horiz-adv-x="1081" 
d="M871 0q-11 38 -15.5 91.5t-4.5 106.5q-27 -44 -67 -83.5t-93 -69.5t-119 -47.5t-147 -17.5q-76 0 -137.5 21.5t-105 60.5t-67 93t-23.5 119q0 72 34 133t98.5 104.5t157.5 68t210 24.5h259v158q0 136 -85.5 211t-244.5 75q-74 0 -137 -20t-109.5 -55.5t-73 -84
t-26.5 -104.5l-54 2q0 63 29.5 120.5t83 101t127 69t160.5 25.5q84 0 154.5 -21.5t121.5 -64t79.5 -107t28.5 -149.5v-542q0 -29 2 -59.5t5.5 -58t8.5 -51.5t12 -40v-9h-62zM425 33q78 0 144.5 18t120 52t94 81.5t67.5 107.5v257h-256q-105 0 -188 -20.5t-141 -57.5
t-89 -88.5t-31 -112.5q0 -49 20.5 -92t57.5 -75.5t88 -51t113 -18.5zM726 1516h66l-195 -266h-60z" />
    <glyph glyph-name="acircumflex" unicode="&#xe2;" horiz-adv-x="1081" 
d="M871 0q-11 38 -15.5 91.5t-4.5 106.5q-27 -44 -67 -83.5t-93 -69.5t-119 -47.5t-147 -17.5q-76 0 -137.5 21.5t-105 60.5t-67 93t-23.5 119q0 72 34 133t98.5 104.5t157.5 68t210 24.5h259v158q0 136 -85.5 211t-244.5 75q-74 0 -137 -20t-109.5 -55.5t-73 -84
t-26.5 -104.5l-54 2q0 63 29.5 120.5t83 101t127 69t160.5 25.5q84 0 154.5 -21.5t121.5 -64t79.5 -107t28.5 -149.5v-542q0 -29 2 -59.5t5.5 -58t8.5 -51.5t12 -40v-9h-62zM425 33q78 0 144.5 18t120 52t94 81.5t67.5 107.5v257h-256q-105 0 -188 -20.5t-141 -57.5
t-89 -88.5t-31 -112.5q0 -49 20.5 -92t57.5 -75.5t88 -51t113 -18.5zM831 1274v-10h-68l-187 196l-185 -196h-64v14l230 239h40z" />
    <glyph glyph-name="atilde" unicode="&#xe3;" horiz-adv-x="1081" 
d="M871 0q-11 38 -15.5 91.5t-4.5 106.5q-27 -44 -67 -83.5t-93 -69.5t-119 -47.5t-147 -17.5q-76 0 -137.5 21.5t-105 60.5t-67 93t-23.5 119q0 72 34 133t98.5 104.5t157.5 68t210 24.5h259v158q0 136 -85.5 211t-244.5 75q-74 0 -137 -20t-109.5 -55.5t-73 -84
t-26.5 -104.5l-54 2q0 63 29.5 120.5t83 101t127 69t160.5 25.5q84 0 154.5 -21.5t121.5 -64t79.5 -107t28.5 -149.5v-542q0 -29 2 -59.5t5.5 -58t8.5 -51.5t12 -40v-9h-62zM425 33q78 0 144.5 18t120 52t94 81.5t67.5 107.5v257h-256q-105 0 -188 -20.5t-141 -57.5
t-89 -88.5t-31 -112.5q0 -49 20.5 -92t57.5 -75.5t88 -51t113 -18.5zM905 1486q0 -42 -13.5 -76t-37.5 -58.5t-56 -38t-69 -13.5q-36 0 -63 9.5t-49 23t-41 30t-39 30t-43 23t-52 9.5q-25 0 -47 -7.5t-38.5 -23.5t-26 -39.5t-9.5 -54.5h-55q0 41 13.5 74t37.5 56.5t56 36
t69 12.5q35 0 62 -9t49.5 -23t42 -30t40 -30t43 -23t50.5 -9q25 0 47 8.5t38.5 25.5t26 41t9.5 56h55z" />
    <glyph glyph-name="adieresis" unicode="&#xe4;" horiz-adv-x="1081" 
d="M871 0q-11 38 -15.5 91.5t-4.5 106.5q-27 -44 -67 -83.5t-93 -69.5t-119 -47.5t-147 -17.5q-76 0 -137.5 21.5t-105 60.5t-67 93t-23.5 119q0 72 34 133t98.5 104.5t157.5 68t210 24.5h259v158q0 136 -85.5 211t-244.5 75q-74 0 -137 -20t-109.5 -55.5t-73 -84
t-26.5 -104.5l-54 2q0 63 29.5 120.5t83 101t127 69t160.5 25.5q84 0 154.5 -21.5t121.5 -64t79.5 -107t28.5 -149.5v-542q0 -29 2 -59.5t5.5 -58t8.5 -51.5t12 -40v-9h-62zM425 33q78 0 144.5 18t120 52t94 81.5t67.5 107.5v257h-256q-105 0 -188 -20.5t-141 -57.5
t-89 -88.5t-31 -112.5q0 -49 20.5 -92t57.5 -75.5t88 -51t113 -18.5zM311 1421q0 23 16 39.5t39 16.5t39.5 -16.5t16.5 -39.5t-16.5 -39t-39.5 -16t-39 16t-16 39zM756 1421q0 23 16 39.5t39 16.5t39.5 -16.5t16.5 -39.5t-16.5 -39t-39.5 -16t-39 16t-16 39z" />
    <glyph glyph-name="aring" unicode="&#xe5;" horiz-adv-x="1081" 
d="M871 0q-11 38 -15.5 91.5t-4.5 106.5q-27 -44 -67 -83.5t-93 -69.5t-119 -47.5t-147 -17.5q-76 0 -137.5 21.5t-105 60.5t-67 93t-23.5 119q0 72 34 133t98.5 104.5t157.5 68t210 24.5h259v158q0 136 -85.5 211t-244.5 75q-74 0 -137 -20t-109.5 -55.5t-73 -84
t-26.5 -104.5l-54 2q0 63 29.5 120.5t83 101t127 69t160.5 25.5q84 0 154.5 -21.5t121.5 -64t79.5 -107t28.5 -149.5v-542q0 -29 2 -59.5t5.5 -58t8.5 -51.5t12 -40v-9h-62zM425 33q78 0 144.5 18t120 52t94 81.5t67.5 107.5v257h-256q-105 0 -188 -20.5t-141 -57.5
t-89 -88.5t-31 -112.5q0 -49 20.5 -92t57.5 -75.5t88 -51t113 -18.5zM408 1382q0 37 13 68.5t36.5 55t54.5 37t67 13.5t67 -13.5t54 -37t36.5 -55t13.5 -68.5t-13.5 -68t-36.5 -53.5t-54 -35.5t-67 -13t-67 13t-54.5 35.5t-36.5 53.5t-13 68zM462 1382q0 -52 33 -84t84 -32
t84 32t33 84q0 54 -33 87t-84 33t-84 -33t-33 -87z" />
    <glyph glyph-name="aringacute" unicode="&#x1fb;" horiz-adv-x="1081" 
d="M871 0q-11 38 -15.5 91.5t-4.5 106.5q-27 -44 -67 -83.5t-93 -69.5t-119 -47.5t-147 -17.5q-76 0 -137.5 21.5t-105 60.5t-67 93t-23.5 119q0 72 34 133t98.5 104.5t157.5 68t210 24.5h259v158q0 136 -85.5 211t-244.5 75q-74 0 -137 -20t-109.5 -55.5t-73 -84
t-26.5 -104.5l-54 2q0 63 29.5 120.5t83 101t127 69t160.5 25.5q84 0 154.5 -21.5t121.5 -64t79.5 -107t28.5 -149.5v-542q0 -29 2 -59.5t5.5 -58t8.5 -51.5t12 -40v-9h-62zM425 33q78 0 144.5 18t120 52t94 81.5t67.5 107.5v257h-256q-105 0 -188 -20.5t-141 -57.5
t-89 -88.5t-31 -112.5q0 -49 20.5 -92t57.5 -75.5t88 -51t113 -18.5zM723 1601h80l-184 -191h-66zM439 1214q0 29 11 55t30 45.5t44 30.5t54 11q28 0 53 -11t43.5 -30.5t29.5 -45.5t11 -55t-11 -54t-29.5 -44t-43.5 -29.5t-53 -10.5q-29 0 -54 10.5t-44 29.5t-30 44t-11 54z
M490 1214q0 -38 26 -63t62 -25t61 25t25 63q0 40 -25 65.5t-61 25.5t-62 -25.5t-26 -65.5z" />
    <glyph glyph-name="ccedilla" unicode="&#xe7;" horiz-adv-x="1039" 
d="M539 34q63 0 123.5 17t108.5 52.5t79 91t36 133.5h54q-4 -83 -37.5 -147.5t-88 -109t-125.5 -68t-150 -23.5q-105 0 -187.5 40t-139 111.5t-86 170.5t-29.5 218v42q0 119 29.5 218t86 170.5t138 111.5t186.5 40q78 0 149.5 -24t126.5 -71.5t89 -118t38 -163.5h-54
q-4 81 -34 141.5t-77.5 101t-109 60.5t-128.5 20q-99 0 -172 -38t-120.5 -104t-70.5 -154.5t-23 -189.5v-42q0 -102 23 -190.5t71 -154t121 -103.5t173 -38zM575 -9l-11 -76q33 -3 65 -13t57 -29.5t40 -50.5t15 -76q0 -43 -20 -78t-56.5 -60t-89.5 -38.5t-119 -13.5l-7 49
q40 0 82 8t76.5 25.5t56.5 44t22 63.5q0 33 -12 54.5t-36 35.5t-59.5 21.5t-81.5 12.5l25 121h53z" />
    <glyph glyph-name="egrave" unicode="&#xe8;" horiz-adv-x="1032" 
d="M561 -20q-99 0 -185 40t-150.5 111.5t-101.5 170t-37 216.5v44q0 118 36 217.5t97.5 171t144 111.5t176.5 40q90 0 165.5 -33.5t130 -94.5t85 -146t30.5 -188v-63h-811v-15v-44q0 -101 32 -189.5t88.5 -154t133.5 -103.5t166 -38q46 0 89.5 7t83.5 24t77 45.5t71 72.5
l38 -27q-27 -39 -62 -71t-79.5 -55t-98.5 -36t-119 -13zM541 1048q-82 0 -150.5 -32t-120.5 -88.5t-84.5 -132.5t-41.5 -164h754v13q0 81 -25.5 154.5t-72 129t-112.5 88t-147 32.5zM610 1249h-59l-195 266h66z" />
    <glyph glyph-name="eacute" unicode="&#xe9;" horiz-adv-x="1032" 
d="M561 -20q-99 0 -185 40t-150.5 111.5t-101.5 170t-37 216.5v44q0 118 36 217.5t97.5 171t144 111.5t176.5 40q90 0 165.5 -33.5t130 -94.5t85 -146t30.5 -188v-63h-811v-15v-44q0 -101 32 -189.5t88.5 -154t133.5 -103.5t166 -38q46 0 89.5 7t83.5 24t77 45.5t71 72.5
l38 -27q-27 -39 -62 -71t-79.5 -55t-98.5 -36t-119 -13zM541 1048q-82 0 -150.5 -32t-120.5 -88.5t-84.5 -132.5t-41.5 -164h754v13q0 81 -25.5 154.5t-72 129t-112.5 88t-147 32.5zM716 1515h66l-195 -266h-60z" />
    <glyph glyph-name="ecircumflex" unicode="&#xea;" horiz-adv-x="1032" 
d="M561 -20q-99 0 -185 40t-150.5 111.5t-101.5 170t-37 216.5v44q0 118 36 217.5t97.5 171t144 111.5t176.5 40q90 0 165.5 -33.5t130 -94.5t85 -146t30.5 -188v-63h-811v-15v-44q0 -101 32 -189.5t88.5 -154t133.5 -103.5t166 -38q46 0 89.5 7t83.5 24t77 45.5t71 72.5
l38 -27q-27 -39 -62 -71t-79.5 -55t-98.5 -36t-119 -13zM541 1048q-82 0 -150.5 -32t-120.5 -88.5t-84.5 -132.5t-41.5 -164h754v13q0 81 -25.5 154.5t-72 129t-112.5 88t-147 32.5zM821 1273v-10h-68l-187 196l-185 -196h-64v14l230 239h40z" />
    <glyph glyph-name="edieresis" unicode="&#xeb;" horiz-adv-x="1032" 
d="M561 -20q-99 0 -185 40t-150.5 111.5t-101.5 170t-37 216.5v44q0 118 36 217.5t97.5 171t144 111.5t176.5 40q90 0 165.5 -33.5t130 -94.5t85 -146t30.5 -188v-63h-811v-15v-44q0 -101 32 -189.5t88.5 -154t133.5 -103.5t166 -38q46 0 89.5 7t83.5 24t77 45.5t71 72.5
l38 -27q-27 -39 -62 -71t-79.5 -55t-98.5 -36t-119 -13zM541 1048q-82 0 -150.5 -32t-120.5 -88.5t-84.5 -132.5t-41.5 -164h754v13q0 81 -25.5 154.5t-72 129t-112.5 88t-147 32.5zM301 1420q0 23 16 39.5t39 16.5t39.5 -16.5t16.5 -39.5t-16.5 -39t-39.5 -16t-39 16
t-16 39zM746 1420q0 23 16 39.5t39 16.5t39.5 -16.5t16.5 -39.5t-16.5 -39t-39.5 -16t-39 16t-16 39z" />
    <glyph glyph-name="igrave" unicode="&#xec;" horiz-adv-x="406" 
d="M235 0h-54v1082h54v-1082zM253 1227h-59l-195 266h66z" />
    <glyph glyph-name="iacute" unicode="&#xed;" horiz-adv-x="406" 
d="M235 0h-54v1082h54v-1082zM358 1493h66l-195 -266h-60z" />
    <glyph glyph-name="icircumflex" unicode="&#xee;" horiz-adv-x="406" 
d="M235 0h-54v1082h54v-1082zM464 1251v-10h-68l-187 196l-185 -196h-64v14l230 239h40z" />
    <glyph glyph-name="idieresis" unicode="&#xef;" horiz-adv-x="406" 
d="M235 0h-54v1082h54v-1082zM-56 1398q0 23 16 39.5t39 16.5t39.5 -16.5t16.5 -39.5t-16.5 -39t-39.5 -16t-39 16t-16 39zM389 1398q0 23 16 39.5t39 16.5t39.5 -16.5t16.5 -39.5t-16.5 -39t-39.5 -16t-39 16t-16 39z" />
    <glyph glyph-name="ntilde" unicode="&#xf1;" 
d="M226 830q24 57 61.5 107t86.5 86.5t108.5 57.5t127.5 21q82 0 146 -22.5t108 -71t67 -124.5t23 -184v-700h-54v700q0 103 -21.5 170.5t-60.5 107t-93 55.5t-118 16q-59 0 -108 -16.5t-88.5 -44.5t-70.5 -64t-53.5 -76t-37.5 -80t-23 -75v-693h-54v1082h54v-252v0z
M906 1484q0 -42 -13.5 -76t-37.5 -58.5t-56 -38t-69 -13.5q-36 0 -63 9.5t-49 23t-41 30t-39 30t-43 23t-52 9.5q-25 0 -47 -7.5t-38.5 -23.5t-26 -39.5t-9.5 -54.5h-55q0 41 13.5 74t37.5 56.5t56 36t69 12.5q35 0 62 -9t49.5 -23t42 -30t40 -30t43 -23t50.5 -9
q25 0 47 8.5t38.5 25.5t26 41t9.5 56h55z" />
    <glyph glyph-name="ograve" unicode="&#xf2;" horiz-adv-x="1127" 
d="M90 562q0 119 34.5 218t97 170.5t149.5 111.5t192 40q106 0 193.5 -40t149.5 -111.5t96.5 -170.5t34.5 -218v-42q0 -119 -34 -218t-96.5 -170.5t-149.5 -111.5t-192 -40q-106 0 -193.5 40t-150 111.5t-97 170.5t-34.5 218v42zM144 520q0 -97 28.5 -185t82.5 -155
t132 -106.5t178 -39.5q99 0 176.5 39.5t131 106.5t82 155t28.5 185v42q0 95 -28.5 182.5t-82.5 155t-132 108t-177 40.5t-177 -40.5t-131.5 -108t-82 -155t-28.5 -182.5v-42zM628 1248h-59l-195 266h66z" />
    <glyph glyph-name="oacute" unicode="&#xf3;" horiz-adv-x="1127" 
d="M90 562q0 119 34.5 218t97 170.5t149.5 111.5t192 40q106 0 193.5 -40t149.5 -111.5t96.5 -170.5t34.5 -218v-42q0 -119 -34 -218t-96.5 -170.5t-149.5 -111.5t-192 -40q-106 0 -193.5 40t-150 111.5t-97 170.5t-34.5 218v42zM144 520q0 -97 28.5 -185t82.5 -155
t132 -106.5t178 -39.5q99 0 176.5 39.5t131 106.5t82 155t28.5 185v42q0 95 -28.5 182.5t-82.5 155t-132 108t-177 40.5t-177 -40.5t-131.5 -108t-82 -155t-28.5 -182.5v-42zM734 1514h66l-195 -266h-60z" />
    <glyph glyph-name="ocircumflex" unicode="&#xf4;" horiz-adv-x="1127" 
d="M90 562q0 119 34.5 218t97 170.5t149.5 111.5t192 40q106 0 193.5 -40t149.5 -111.5t96.5 -170.5t34.5 -218v-42q0 -119 -34 -218t-96.5 -170.5t-149.5 -111.5t-192 -40q-106 0 -193.5 40t-150 111.5t-97 170.5t-34.5 218v42zM144 520q0 -97 28.5 -185t82.5 -155
t132 -106.5t178 -39.5q99 0 176.5 39.5t131 106.5t82 155t28.5 185v42q0 95 -28.5 182.5t-82.5 155t-132 108t-177 40.5t-177 -40.5t-131.5 -108t-82 -155t-28.5 -182.5v-42zM839 1272v-10h-68l-187 196l-185 -196h-64v14l230 239h40z" />
    </font>
</defs>
</svg>
